如资源无法下载,请在「交流」反馈!

[更 早][欧美][剧情][BD-1080P]盖普眼中的世界/加普的世界观 The.World.According.to.Garp.1982.1080p.BluRay.X264-AMIABLE 13.12G


帖子完整标题:盖普眼中的世界/加普的世界观 The.World.According.to.Garp.1982.1080p.BluRay.X264-AMIABLE 13.12GB



◎译  名 盖普眼中的世界/加普的世界观/少年盖普的烦恼
◎片  名 The World According to Garp
◎年  代 1982
◎产  地 美国
◎类  别 剧情 / 喜剧 / 爱情 / 运动
◎语  言 英语
◎上映日期 1982-07-23(美国)
◎IMDb评分7.2/10 from 24644 users
◎IMDb链接https://www.imdb.com/title/tt0084917/
◎豆瓣评分 7.4/10 from 226 users
◎豆瓣链接 https://movie.douban.com/subject/1295859/
◎片  长 136 分钟
◎导  演 乔治·罗伊·希尔 George Roy Hill
◎编  剧 约翰·欧文 John Irving
◎主  演 罗宾·威廉姆斯 Robin Williams
     格伦·克洛斯 Glenn Close
     约翰·利思戈 John Lithgow
     布伦达·柯林 Brenda Currin

◎标  签 美国 | 美国电影 | 成长 | RobinWilliams | 罗宾·威廉姆斯 | 励志 | 文学电影 | GeorgeRoyHill

◎简  介

  Many people criticize a film based on how close it relates and carries over from its novel or written form.
  
  However, knowing up front that this film is NOT the book and dares to actually go in different directions than the book, may allow for a
  
  viewer to be a bit more open about the point of the story and not necessarily the story itself.
  
  I adore the novel. When the film came out I was crass about how much was omitted or changed or embellished. But then, several years later, I watched it again. I was amazed at how many of the unknown actors I'd seen before had become huge Hollywood staples (John Lithgow's amazing performance, Glenn Close, Robin Williams, Hume & Jessica, Mary Beth Hurt, the wonderful Swoosie Kurtz, the godess Amanda Plummer,
  
  and even a cameo from John Irving himself!).
  
  This film is alive with brilliant talent. And let's not forget the music as well. From the opening score of the Beatles, WHEN I'M 64 to the closing sounds of the helicopter, this films sountrack alone is worth drawing attention - simple, honest, pure.
  
  There is magic in this film that makes it a timeless, yet period piece.
  
  If the viewer compares it to the novel, there may be disappointment or disapproval. However, allowed to stand alone, this film will surely endear itself to any viewer's heart.

◎获奖情况

  第55届奥斯卡金像奖 ?(1983)
  最佳男配角(提名) 约翰·利思戈
  最佳女配角(提名) 格伦·克洛斯

Video
ID : 1
Format : AVC
Format/Info: Advanced Video Codec
Format profile : [email protected]
Format settings: CABAC / 4 Ref Frames
Format settings, CABAC : Yes
Format settings, Reference frames: 4 frames
Codec ID : V_MPEG4/ISO/AVC
Duration : 2 h 16 min
Bit rate : 12.3 Mb/s
Width: 1 920 pixels
Height : 1 080 pixels
Display aspect ratio : 16:9
Frame rate mode: Constant
Frame rate : 23.976 (24000/1001/189150) FPS
Color space: YUV
Chroma subsampling : 4:2:0
Bit depth: 8 bits
Scan type: Progressive
Bits/(Pixel*Frame) : 0.247
Stream size: 11.4 GiB (87%)
Writing library: x264 core 148 r2579 73ae2d1
Encoding settings: cabac=1 / ref=4 / deblock=1:-3:-3 / analyse=0x3:0x113 / me=umh / subme=8 / psy=1 / psy_rd=1.00:0.00 / mixed_ref=1 / me_range=16 / chroma_me=1 / trellis=1 / 8x8dct=1 / cqm=0 / deadzone=21,11 / fast_pskip=1 / chroma_qp_offset=-2 / threads=18 / lookahead_threads=3 / sliced_threads=0 / nr=0 / decimate=1 / interlaced=0 / bluray_compat=0 / constrained_intra=0 / bframes=3 / b_pyramid=2 / b_adapt=2 / b_bias=0 / direct=3 / weightb=1 / open_gop=0 / weightp=2 / keyint=240 / keyint_min=24 / scenecut=40 / intra_refresh=0 / rc_lookahead=50 / rc=2pass / mbtree=1 / bitrate=12260 / ratetol=1.0 / qcomp=0.60 / qpmin=0 / qpmax=69 / qpstep=4 / cplxblur=20.0 / qblur=0.5 / ip_ratio=1.40 / aq=1:1.00
Language : English
Default: Yes
Forced : No

Audio
ID : 2
Format : DTS
Format/Info: Digital Theater Systems
Codec ID : A_DTS
Duration : 2 h 16 min
Bit rate mode: Constant
Bit rate : 1 509 kb/s
Channel(s) : 2 channels
Channel layout : L R
Sampling rate: 48.0 kHz
Frame rate : 93.750 FPS (512 SPF)
Bit depth: 24 bits
Compression mode : Lossy
Stream size: 1.44 GiB (11%)
Language : English
Default: Yes
Forced : No

Text #1
ID : 3
Format : UTF-8
Codec ID : S_TEXT/UTF8
Codec ID/Info: UTF-8 Plain Text
Language : English
Default: No
Forced : No

Text #2
ID : 4
Format : UTF-8
Codec ID : S_TEXT/UTF8
Codec ID/Info: UTF-8 Plain Text
Title: SDH
Language : English
Default: No
Forced : No

Menu
00:00:00.000 : en:00:00:00.000
00:02:36.365 : en:00:02:36.365
00:04:38.195 : en:00:04:38.195
00:07:46.049 : en:00:07:46.049
00:11:10.420 : en:00:11:10.420
00:14:02.216 : en:00:14:02.216
00:17:05.399 : en:00:17:05.399
00:19:44.850 : en:00:19:44.850
00:24:21.460 : en:00:24:21.460
00:25:53.677 : en:00:25:53.677
00:29:24.346 : en:00:29:24.346
00:33:39.559 : en:00:33:39.559
00:35:22.245 : en:00:35:22.245
00:37:54.105 : en:00:37:54.105
00:39:52.640 : en:00:39:52.640
00:45:51.874 : en:00:45:51.874
00:48:37.623 : en:00:48:37.623
00:51:40.097 : en:00:51:40.097
00:53:58.944 : en:00:53:58.944
00:56:53.410 : en:00:56:53.410
00:59:19.181 : en:00:59:19.181
01:02:18.234 : en:01:02:18.234
01:03:22.382 : en:01:03:22.382
01:10:10.915 : en:01:10:10.915
01:12:43.651 : en:01:12:43.651
01:15:25.730 : en:01:15:25.730
01:18:04.430 : en:01:18:04.430
01:20:03.882 : en:01:20:03.882
01:25:07.519 : en:01:25:07.519
01:27:42.549 : en:01:27:42.549
01:30:15.952 : en:01:30:15.952
01:33:25.767 : en:01:33:25.767
01:37:41.272 : en:01:37:41.272
01:42:13.753 : en:01:42:13.753
01:46:15.452 : en:01:46:15.452
01:50:11.605 : en:01:50:11.605
01:53:13.495 : en:01:53:13.495
01:57:23.286 : en:01:57:23.286
02:01:57.310 : en:02:01:57.310
02:04:51.109 : en:02:04:51.109
02:07:18.172 : en:02:07:18.172
02:10:35.953 : en:02:10:35.953
02:12:13.592 : en:02:12:13.592
02:14:09.041 : en:02:14:09.041






The.World.According.to.Garp.1982.1080p.BluRay.X264-AMIABLE.zip
还没有人收藏过本帖~
最新回复 (0)
返回
发新帖
即将对游客闭站,请注册账号备用!
影音屋为您提供最新的720P、1080P、2K、4K、原盘高清电影下载,内部交流社区,欢迎体验。影音屋,更多好电影待您发现!
加入福利电报群 加入福利企鹅群 淘宝天猫漏洞单