如资源无法下载,请在「交流」反馈!

[更 早][欧美][剧情][BD-1080P]漫长美好的星期五/美好的星期五 The.Long.Good.Friday.1980.REMASTERED.1080p.BluRay.X264-AMIABLE 1


帖子完整标题:漫长美好的星期五/美好的星期五 The.Long.Good.Friday.1980.REMASTERED.1080p.BluRay.X264-AMIABLE 10.93GB



◎译  名 漫长美好的星期五/美好的星期五
◎片  名 The Long Good Friday
◎年  代 1980
◎产  地 英国
◎类  别 剧情 / 悬疑 / 惊悚 / 犯罪
◎语  言 英语,法语
◎上映日期 1980-11
◎IMDb评分7.6/10 from 18803 users
◎IMDb链接https://www.imdb.com/title/tt0081070/
◎豆瓣评分 7.2/10 from 621 users
◎豆瓣链接 https://movie.douban.com/subject/1292848/
◎片  长 114 分钟
◎导  演 约翰·麦肯齐 John Mackenzie
◎编  剧 巴瑞·科菲 Barrie Keeffe
◎主  演 鲍勃·霍斯金斯 Bob Hoskins
     海伦·米伦 Helen Mirren
     戴夫·金 Dave King
     埃迪·康斯坦丁 Eddie Constantine
     皮尔斯·布鲁斯南 Pierce Brosnan
     Roy Alon
     保罗·巴伯 Paul Barber

◎标  签 英国 | 黑帮 | 犯罪 | 英国电影 | CC | 1980 | 1980s | JohnMackenzie

◎简  介

  奥斯卡提名男演员Bob Hoskins在本片中扮演伦敦黑社会的一名凶残的帮派首领。但是一天他准备和一个美国犯罪家族达成一笔交易之际,他的整个“帝国”突然开始坍塌。是谁这么胆大包天来进攻英国最野蛮的黑帮?他又会怎样去找寻真相?到底这一切的背后是谁在搞鬼呢?

Video
ID : 1
Format : AVC
Format/Info: Advanced Video Codec
Format profile : [email protected]
Format settings: CABAC / 4 Ref Frames
Format settings, CABAC : Yes
Format settings, Reference frames: 4 frames
Codec ID : V_MPEG4/ISO/AVC
Duration : 1 h 54 min
Bit rate : 13.1 Mb/s
Width: 1 920 pixels
Height : 1 040 pixels
Display aspect ratio : 1.85:1
Frame rate mode: Constant
Frame rate : 23.976 (24000/1001/189150) FPS
Color space: YUV
Chroma subsampling : 4:2:0
Bit depth: 8 bits
Scan type: Progressive
Bits/(Pixel*Frame) : 0.273
Stream size: 10.4 GiB (95%)
Writing library: x264 core 146 r2538 121396c
Encoding settings: cabac=1 / ref=4 / deblock=1:-3:-3 / analyse=0x3:0x133 / me=umh / subme=10 / psy=1 / psy_rd=1.15:0.00 / mixed_ref=1 / me_range=32 / chroma_me=1 / trellis=2 / 8x8dct=1 / cqm=0 / deadzone=21,11 / fast_pskip=0 / chroma_qp_offset=-2 / threads=24 / lookahead_threads=4 / sliced_threads=0 / nr=0 / decimate=1 / interlaced=0 / bluray_compat=0 / constrained_intra=0 / bframes=8 / b_pyramid=2 / b_adapt=2 / b_bias=0 / direct=3 / weightb=1 / open_gop=0 / weightp=2 / keyint=240 / keyint_min=24 / scenecut=40 / intra_refresh=0 / rc_lookahead=60 / rc=2pass / mbtree=1 / bitrate=13085 / ratetol=1.0 / qcomp=0.60 / qpmin=0 / qpmax=69 / qpstep=4 / cplxblur=20.0 / qblur=0.5 / ip_ratio=1.40 / aq=3:0.70
Language : English
Default: Yes
Forced : No

Audio
ID : 2
Format : AC-3
Format/Info: Audio Coding 3
Commercial name: Dolby Digital
Codec ID : A_AC3
Duration : 1 h 54 min
Bit rate mode: Constant
Bit rate : 640 kb/s
Channel(s) : 1 channel
Channel layout : C
Sampling rate: 48.0 kHz
Frame rate : 31.250 FPS (1536 SPF)
Compression mode : Lossy
Stream size: 522 MiB (5%)
Language : English
Service kind : Complete Main
Default: Yes
Forced : No

Text #1
ID : 3
Format : UTF-8
Codec ID : S_TEXT/UTF8
Codec ID/Info: UTF-8 Plain Text
Duration : 1 h 47 min
Bit rate : 53 b/s
Count of elements: 1168
Stream size: 42.2 KiB (0%)
Language : English
Default: No
Forced : No

Text #2
ID : 4
Format : UTF-8
Codec ID : S_TEXT/UTF8
Codec ID/Info: UTF-8 Plain Text
Duration : 1 h 48 min
Bit rate : 55 b/s
Count of elements: 1262
Stream size: 44.4 KiB (0%)
Title: SDH
Language : English
Default: No
Forced : No

Menu
00:00:00.000 : en:00:00:00.000
00:09:55.053 : en:00:09:55.053
00:20:46.537 : en:00:20:46.537
00:28:46.099 : en:00:28:46.099
00:39:08.763 : en:00:39:08.763
00:48:33.244 : en:00:48:33.244
00:56:41.481 : en:00:56:41.481
01:07:28.378 : en:01:07:28.378
01:14:13.866 : en:01:14:13.866
01:23:00.434 : en:01:23:00.434
01:36:27.573 : en:01:36:27.573
01:44:21.088 : en:01:44:21.088






The.Long.Good.Friday.1980.REMASTERED.1080p.BluRay.X264-AMIABLE.zip
还没有人收藏过本帖~
最新回复 (0)
返回
发新帖
即将对游客闭站,请注册账号备用!
影音屋为您提供最新的720P、1080P、2K、4K、原盘高清电影下载,内部交流社区,欢迎体验。影音屋,更多好电影待您发现!
加入福利电报群 加入福利企鹅群 淘宝天猫漏洞单