如资源无法下载,请在「交流」反馈!

[更 早][欧美][剧情][BD-1080P]龙拳小子 The.Last.Dragon.1985.1080p.BluRay.X264-AMIABLE 9.83GB


帖子完整标题:龙拳小子 The.Last.Dragon.1985.1080p.BluRay.X264-AMIABLE 9.83GB



◎译  名 龙拳小子/Berry Gordy's The Last Dragon/最后的猛龙
◎片  名 The Last Dragon
◎年  代 1985
◎产  地 美国
◎类  别 剧情 / 喜剧 / 动作 / 音乐
◎语  言 英语
◎上映日期 1985-03-22(美国)
◎IMDb评分6.9/10 from 12777 users
◎IMDb链接https://www.imdb.com/title/tt0089461/
◎豆瓣评分 6.2/10 from 75 users
◎豆瓣链接 https://movie.douban.com/subject/2133096/
◎片  长 109 分钟
◎导  演 迈克尔·舒尔茨 Michael Schultz
◎编  剧 Louis Venosta
◎主  演 Taimak
     Vanity
     克里斯托弗·莫尼 Christopher Murney
     Julius Carry
     费斯·普林斯 Faith Prince
     迈克·斯塔尔 Mike Starr
     吉姆·穆迪 Jim Moody
     厄尼·雷耶斯 Ernie Reyes Jr.
     凯西娅·奈特·普兰姆 Keshia Knight Pulliam
     Ernie Reyes Sr.
     Charlene
     Michael G. Chin
     毛俊辉 Fredric Mao Chun-fai
     André D. Brown
     托尼·赫德 Tony Head
     Silvia Mathis Manning
     罗范恩 Ron Van Clief
     Kariim Ratcliff
     威廉姆·H·梅西 William H. Macy
     弗兰克·伦祖利 Frank Renzulli
     查兹·帕尔明特瑞 Chazz Palminteri
     Anthony Cortino
     Lia Chang
     哈格蒂队长 Captain Haggerty
     卡尔·安东尼·佩恩二世 Carl Anthony Payne II
     Clayton Prince
     Jill Powell
     Robert Silver
     Rhonda Ross Kendrick

◎标  签 功夫 | 动作 | 喜剧 | 美国 | 电影 | 1985 | blaxploitation | 黑人

◎简  介

  影片设定在纽约市,故事围绕着一位名叫Leroy Green的有理想有抱负的青年武术家展开,他渴望像李小龙那样达到武术的最高境界,并希望得到名为“圣光”(The Glow)的神秘力量。在他成为“最后的猛龙”(The Last Dragon)的道路中,还必须勇敢面对邪恶的Sho’nuff等敌人的挑战。

Video
ID : 1
Format : AVC
Format/Info: Advanced Video Codec
Format profile : [email protected]
Format settings: CABAC / 4 Ref Frames
Format settings, CABAC : Yes
Format settings, Reference frames: 4 frames
Codec ID : V_MPEG4/ISO/AVC
Duration : 1 h 48 min
Bit rate : 11.5 Mb/s
Width: 1 920 pixels
Height : 1 040 pixels
Display aspect ratio : 1.85:1
Frame rate mode: Constant
Frame rate : 23.976 (24000/1001/189150) FPS
Color space: YUV
Chroma subsampling : 4:2:0
Bit depth: 8 bits
Scan type: Progressive
Bits/(Pixel*Frame) : 0.240
Stream size: 8.50 GiB (86%)
Writing library: x264 core 148 r2579 73ae2d1
Encoding settings: cabac=1 / ref=4 / deblock=1:-3:-3 / analyse=0x3:0x113 / me=umh / subme=8 / psy=1 / psy_rd=1.00:0.00 / mixed_ref=1 / me_range=16 / chroma_me=1 / trellis=1 / 8x8dct=1 / cqm=0 / deadzone=21,11 / fast_pskip=1 / chroma_qp_offset=-2 / threads=24 / lookahead_threads=4 / sliced_threads=0 / nr=0 / decimate=1 / interlaced=0 / bluray_compat=0 / constrained_intra=0 / bframes=3 / b_pyramid=2 / b_adapt=2 / b_bias=0 / direct=3 / weightb=1 / open_gop=0 / weightp=2 / keyint=240 / keyint_min=24 / scenecut=40 / intra_refresh=0 / rc_lookahead=50 / rc=2pass / mbtree=1 / bitrate=11496 / ratetol=1.0 / qcomp=0.60 / qpmin=0 / qpmax=69 / qpstep=4 / cplxblur=20.0 / qblur=0.5 / ip_ratio=1.40 / aq=1:1.00
Language : English
Default: Yes
Forced : No

Audio
ID : 2
Format : DTS
Format/Info: Digital Theater Systems
Codec ID : A_DTS
Duration : 1 h 48 min
Bit rate mode: Constant
Bit rate : 1 509 kb/s
Channel(s) : 6 channels
ChannelLayout_Original : C L R Ls Rs LFE
Sampling rate: 48.0 kHz
Frame rate : 93.750 FPS (512 SPF)
Bit depth: 24 bits
Compression mode : Lossy
Stream size: 1.14 GiB (12%)
Language : English
Default: Yes
Forced : No

Text #1
ID : 3
Format : UTF-8
Codec ID : S_TEXT/UTF8
Codec ID/Info: UTF-8 Plain Text
Language : English
Default: No
Forced : No

Text #2
ID : 4
Format : UTF-8
Codec ID : S_TEXT/UTF8
Codec ID/Info: UTF-8 Plain Text
Title: SDH
Language : English
Default: No
Forced : No

Menu
00:00:00.000 : en:00:00:00.000
00:06:20.547 : en:00:06:20.547
00:13:06.035 : en:00:13:06.035
00:21:50.476 : en:00:21:50.476
00:26:16.366 : en:00:26:16.366
00:28:32.127 : en:00:28:32.127
00:32:54.848 : en:00:32:54.848
00:39:45.049 : en:00:39:45.049
00:46:39.714 : en:00:46:39.714
00:56:43.191 : en:00:56:43.191
01:02:31.873 : en:01:02:31.873
01:12:05.821 : en:01:12:05.821
01:17:11.418 : en:01:17:11.418
01:23:04.855 : en:01:23:04.855
01:28:59.209 : en:01:28:59.209
01:41:31.502 : en:01:41:31.502






The.Last.Dragon.1985.1080p.BluRay.X264-AMIABLE.zip
还没有人收藏过本帖~
最新回复 (0)
返回
发新帖
即将对游客闭站,请注册账号备用!
影音屋为您提供最新的720P、1080P、2K、4K、原盘高清电影下载,内部交流社区,欢迎体验。影音屋,更多好电影待您发现!
加入福利电报群 加入福利企鹅群 淘宝天猫漏洞单