如资源无法下载,请在「交流」反馈!

[更 早][其他][剧情][BD-1080P]不准掉头/U形转弯 U.Turn.1997.1080p.BluRay.X264-AMIABLE 12.03GB


帖子完整标题:不准掉头/U形转弯 U.Turn.1997.1080p.BluRay.X264-AMIABLE 12.03GB



◎译  名 不准掉头/U形转弯/上错惊魂路
◎片  名 U Turn
◎年  代 1997
◎产  地 法国,美国
◎类  别 剧情 / 惊悚 / 犯罪
◎语  言 英语
◎上映日期 1997-10-03
◎IMDb评分6.8/10 from 48855 users
◎IMDb链接https://www.imdb.com/title/tt0120399/
◎豆瓣评分 8.0/10 from 12150 users
◎豆瓣链接 https://movie.douban.com/subject/1292228/
◎片  长 125 分钟
◎导  演 奥利佛·斯通 Oliver Stone
◎编  剧 约翰·里德利 John Ridley
◎主  演 西恩·潘 Sean Penn
     尼克·诺特 Nick Nolte
     詹妮弗·洛佩兹 Jennifer Lopez
     比利·鲍伯·松顿 Billy Bob Thornton
     丽芙·泰勒 Liv Tyler
     华金·菲尼克斯 Joaquin Phoenix
     克莱尔·丹妮丝 Claire Danes
     强·沃特 Jon Voight
     瓦列里·尼古拉耶夫 Valeriy Nikolaev
     Aida Linares

◎标  签 美国 | 公路 | 黑色幽默 | 人性 | 奥利弗·斯通 | OliverStone | 剧情 | SeanPenn

◎简  介

  曾是网球选手的博比(西恩?潘 Sean Penn 饰)最近霉运缠身,先是欠下赌债被债主砍去手指,继而在前往拉斯维加斯还债途中汽车竟然在一个偏僻的小镇苏必略抛锚了。然而,倒霉透顶的博比怎么也没有想到,他的恶运其实刚刚开始。
  
  在苏必略,博比先是被修车工敲诈,强行扣下了他的车;然后,他在商店又遭到了抢劫,最后,万分郁闷的他甚至在酒吧喝闷酒都被一个不明所以的青年纠缠,硬是说他和自己女友有染,两人甚至大打出手。就在此时,博比遇到了一位神秘美女格雷斯(詹妮弗?洛佩兹 Jennifer Lopez 饰)。当他们正在进行好事时,撞见了格雷斯的丈夫杰克。出人意料的是,杰克竟然要求博比干掉格雷斯!怪事一桩接一桩,完全摸不着头脑的博比最终何去何从?

Video
ID : 1
Format : AVC
Format/Info: Advanced Video Codec
Format profile : [email protected]
Format settings: CABAC / 4 Ref Frames
Format settings, CABAC : Yes
Format settings, Reference frames: 4 frames
Codec ID : V_MPEG4/ISO/AVC
Duration : 2 h 4 min
Bit rate : 12.3 Mb/s
Width: 1 920 pixels
Height : 1 040 pixels
Display aspect ratio : 1.85:1
Frame rate mode: Constant
Frame rate : 23.976 (24000/1001/189150) FPS
Color space: YUV
Chroma subsampling : 4:2:0
Bit depth: 8 bits
Scan type: Progressive
Bits/(Pixel*Frame) : 0.258
Stream size: 10.5 GiB (87%)
Writing library: x264 core 146 r2538 121396c
Encoding settings: cabac=1 / ref=4 / deblock=1:-3:-3 / analyse=0x3:0x113 / me=umh / subme=8 / psy=1 / psy_rd=1.00:0.00 / mixed_ref=1 / me_range=16 / chroma_me=1 / trellis=1 / 8x8dct=1 / cqm=0 / deadzone=21,11 / fast_pskip=1 / chroma_qp_offset=-2 / threads=24 / lookahead_threads=4 / sliced_threads=0 / nr=0 / decimate=1 / interlaced=0 / bluray_compat=0 / constrained_intra=0 / bframes=3 / b_pyramid=2 / b_adapt=2 / b_bias=0 / direct=3 / weightb=1 / open_gop=0 / weightp=2 / keyint=240 / keyint_min=24 / scenecut=40 / intra_refresh=0 / rc_lookahead=50 / rc=2pass / mbtree=1 / bitrate=12328 / ratetol=1.0 / qcomp=0.60 / qpmin=0 / qpmax=69 / qpstep=4 / cplxblur=20.0 / qblur=0.5 / ip_ratio=1.40 / aq=1:1.00
Language : English
Default: Yes
Forced : No

Audio
ID : 2
Format : DTS
Format/Info: Digital Theater Systems
Codec ID : A_DTS
Duration : 2 h 4 min
Bit rate mode: Constant
Bit rate : 1 509 kb/s
Channel(s) : 6 channels
ChannelLayout_Original : C L R Ls Rs LFE
Sampling rate: 48.0 kHz
Frame rate : 93.750 FPS (512 SPF)
Bit depth: 24 bits
Compression mode : Lossy
Stream size: 1.31 GiB (11%)
Language : English
Default: Yes
Forced : No

Text #1
ID : 3
Format : UTF-8
Codec ID : S_TEXT/UTF8
Codec ID/Info: UTF-8 Plain Text
Title: SDH
Language : English
Default: No
Forced : No

Text #2
ID : 4
Format : UTF-8
Codec ID : S_TEXT/UTF8
Codec ID/Info: UTF-8 Plain Text
Language : English
Default: No
Forced : No

Menu
00:00:00.000 : en:00:00:00.000
00:04:36.359 : en:00:04:36.359
00:09:57.806 : en:00:09:57.806
00:14:44.884 : en:00:14:44.884
00:22:04.031 : en:00:22:04.031
00:26:00.309 : en:00:26:00.309
00:32:04.881 : en:00:32:04.881
00:35:51.066 : en:00:35:51.066
00:41:49.841 : en:00:41:49.841
00:48:08.385 : en:00:48:08.385
00:52:27.811 : en:00:52:27.811
00:57:52.511 : en:00:57:52.511
01:03:10.036 : en:01:03:10.036
01:10:14.961 : en:01:10:14.961
01:13:12.263 : en:01:13:12.263
01:19:00.945 : en:01:19:00.945
01:24:46.790 : en:01:24:46.790
01:28:23.173 : en:01:28:23.173
01:35:03.823 : en:01:35:03.823
01:39:51.402 : en:01:39:51.402
01:47:25.356 : en:01:47:25.356
01:49:31.398 : en:01:49:31.398
01:54:08.216 : en:01:54:08.216
02:00:38.648 : en:02:00:38.648






U.Turn.1997.1080p.BluRay.X264-AMIABLE.zip
还没有人收藏过本帖~
最新回复 (0)
返回
发新帖
即将对游客闭站,请注册账号备用!
影音屋为您提供最新的720P、1080P、2K、4K、原盘高清电影下载,内部交流社区,欢迎体验。影音屋,更多好电影待您发现!
加入福利电报群 加入福利企鹅群 淘宝天猫漏洞单