如资源无法下载,请在「交流」反馈!

[2014][其他][喜剧][BD-1080P]血色孤语/心聲 The.Voices.2014.LIMITED.1080p.BluRay.X264-AMIABLE 7.65GB


帖子完整标题:血色孤语/心聲 The.Voices.2014.LIMITED.1080p.BluRay.X264-AMIABLE 7.65GB



◎译  名 血色孤语/心聲(台)
◎片  名 The Voices
◎年  代 2014
◎产  地 美国,德国
◎类  别 喜剧 / 惊悚 / 犯罪
◎语  言 英语
◎上映日期 2014-01-19(圣丹斯电影节) / 2015-02-06(美国)
◎IMDb评分6.4/10 from 52526 users
◎IMDb链接https://www.imdb.com/title/tt1567437/
◎豆瓣评分 7.2/10 from 9813 users
◎豆瓣链接 https://movie.douban.com/subject/4202983/
◎片  长 103分钟
◎导  演 玛嘉·莎塔琵 Marjane Satrapi
◎编  剧 迈克尔·R·佩里 Michael R. Perry
◎主  演 瑞恩·雷诺兹 Ryan Reynolds
     杰玛·阿特登 Gemma Arterton
     安娜·肯德里克 Anna Kendrick
     杰基·韦佛 Jacki Weaver
     格列佛·麦格拉思 Gulliver McGrath
     斯蒂芬妮·沃格特 Stephanie Vogt
     Valerie Koch
     迈克尔·品克 Michael Pink
     艾拉·史密斯 Ella Smith
     哈米许 Hamish
     斯派克 Spike
     开罗 Cairo
     Gretel Ashzinger

◎标  签 惊悚 | 美国 | 喜剧 | 犯罪 | 恐怖 | 心理 | 黑色幽默 | 2014

◎简  介

  杰瑞(瑞安·雷诺兹 Ryan Reynolds 饰)是工厂里的打包工,和一猫一狗过着相依为命的生活。同事眼中的杰瑞乐观开朗,对工作充满了热情,可实际上,杰瑞患有严重的精神分裂症,需要依赖药物控制病情,更糟糕的是,杰瑞并没有按照医嘱服用药物!因为一旦吃了药,他就无法和家里的阿猫阿狗对话了。
  
  杰瑞喜欢着广告部的女同事菲奥娜(杰玛·阿特登 Gemma Arterton 饰),一场意外中,菲奥娜命丧杰瑞刀下,杰瑞将菲奥娜的尸体带回家,将她的头切下来藏在了冰箱里。让杰瑞感到震惊的是,菲奥娜的头竟然也开始说话了,菲奥娜恳求杰瑞替她找一个伴儿,于是,杰瑞将目标放在了菲奥娜的好友丽萨(安娜·肯德里克 Anna Kendrick 饰)身上。

Video
ID : 1
Format : AVC
Format/Info: Advanced Video Codec
Format profile : [email protected]
Format settings: CABAC / 5 Ref Frames
Format settings, CABAC : Yes
Format settings, Reference frames: 5 frames
Codec ID : V_MPEG4/ISO/AVC
Duration : 1 h 43 min
Bit rate : 9 062 kb/s
Width: 1 920 pixels
Height : 816 pixels
Display aspect ratio : 2.35:1
Frame rate mode: Constant
Frame rate : 23.976 (24000/1001/189150) FPS
Color space: YUV
Chroma subsampling : 4:2:0
Bit depth: 8 bits
Scan type: Progressive
Bits/(Pixel*Frame) : 0.241
Stream size: 6.41 GiB (84%)
Writing library: x264 core 146 r2538 121396c
Encoding settings: cabac=1 / ref=5 / deblock=1:-3:-3 / analyse=0x3:0x113 / me=umh / subme=8 / psy=1 / psy_rd=1.00:0.00 / mixed_ref=1 / me_range=16 / chroma_me=1 / trellis=1 / 8x8dct=1 / cqm=0 / deadzone=21,11 / fast_pskip=1 / chroma_qp_offset=-2 / threads=24 / lookahead_threads=4 / sliced_threads=0 / nr=0 / decimate=1 / interlaced=0 / bluray_compat=0 / constrained_intra=0 / bframes=3 / b_pyramid=2 / b_adapt=2 / b_bias=0 / direct=3 / weightb=1 / open_gop=0 / weightp=2 / keyint=240 / keyint_min=24 / scenecut=40 / intra_refresh=0 / rc_lookahead=50 / rc=2pass / mbtree=1 / bitrate=9062 / ratetol=1.0 / qcomp=0.60 / qpmin=0 / qpmax=69 / qpstep=4 / cplxblur=20.0 / qblur=0.5 / ip_ratio=1.40 / aq=1:1.00
Language : English
Default: Yes
Forced : No

Audio
ID : 2
Format : DTS
Format/Info: Digital Theater Systems
Codec ID : A_DTS
Duration : 1 h 43 min
Bit rate mode: Constant
Bit rate : 1 509 kb/s
Channel(s) : 6 channels
ChannelLayout_Original : C L R Ls Rs LFE
Sampling rate: 48.0 kHz
Frame rate : 93.750 FPS (512 SPF)
Bit depth: 24 bits
Compression mode : Lossy
Stream size: 1.09 GiB (14%)
Language : English
Default: Yes
Forced : No

Text #1
ID : 3
Format : UTF-8
Codec ID : S_TEXT/UTF8
Codec ID/Info: UTF-8 Plain Text
Language : English
Default: No
Forced : No

Text #2
ID : 4
Format : UTF-8
Codec ID : S_TEXT/UTF8
Codec ID/Info: UTF-8 Plain Text
Title: SDH
Language : English
Default: No
Forced : No

Menu
00:00:00.000 : en:00:00:00.000
00:07:30.408 : en:00:07:30.408
00:15:14.872 : en:00:15:14.872
00:22:56.875 : en:00:22:56.875
00:30:41.465 : en:00:30:41.465
00:39:29.784 : en:00:39:29.784
00:48:43.712 : en:00:48:43.712
01:00:10.524 : en:01:00:10.524
01:08:43.244 : en:01:08:43.244
01:16:26.040 : en:01:16:26.040
01:26:34.314 : en:01:26:34.314
01:36:13.393 : en:01:36:13.393






The.Voices.2014.LIMITED.1080p.BluRay.X264-AMIABLE.zip
还没有人收藏过本帖~
最新回复 (0)
返回
发新帖
即将对游客闭站,请注册账号备用!
影音屋为您提供最新的720P、1080P、2K、4K、原盘高清电影下载,内部交流社区,欢迎体验。影音屋,更多好电影待您发现!
加入福利电报群 加入福利企鹅群 淘宝天猫漏洞单