如资源无法下载,请在「交流」反馈!

[2011][欧美][WEB-1080P]关于杰纳瑟斯与珍女士的民谣/關於傑納瑟斯與珍女士的民謠 The.Ballad.of.Genesis.and.Lady.Jaye.2011.1080p.WEBRi


帖子完整标题:关于杰纳瑟斯与珍女士的民谣/關於傑納瑟斯與珍女士的民謠 The.Ballad.of.Genesis.and.Lady.Jaye.2011.1080p.WEBRip.AAC2.0.x264-NOGRP 2.94GB



◎译  名 关于杰纳瑟斯与珍女士的民谣/關於傑納瑟斯與珍女士的民謠
◎片  名 THE BALLAD OF GENESIS AND LADY JAYE
◎年  代 2011
◎产  地 美国
◎类  别 
◎上映日期 
◎IMDb评分6.7/10 from 507 users
◎IMDb链接https://www.imdb.com/title/tt1821635/
◎豆瓣评分 /10 from 0 users
◎豆瓣链接 https://movie.douban.com/subject/6024450/
◎导  演 Marie Losier

◎标  签 纪录片 | 美国 | 音乐 | 法國 | FilmStudies | 2 | ドキュメント | Acinema

◎简  介

  An intimate, affecting portrait of the life and work of ground-breaking performance artist and music pioneer Genesis Breyer P-Orridge (Throbbing Gristle, Psychic TV) and his other half and collaborator, Lady Jaye, centered around the daring sexual transformations the pair underwent for their “Pandrogyne” project

◎获奖情况

  第61届柏林国际电影节 ?(2011)
  泰迪熊奖最佳纪录片 MarieLosier

Video
ID : 1
Format : AVC
Format/Info: Advanced Video Codec
Format profile : [email protected]
Format settings: CABAC / 4 Ref Frames
Format settings, CABAC : Yes
Format settings, Reference frames: 4 frames
Codec ID : V_MPEG4/ISO/AVC
Duration : 1 h 10 min
Bit rate : 5 869 kb/s
Width: 1 476 pixels
Height : 1 080 pixels
Display aspect ratio : 4:3
Frame rate mode: Constant
Frame rate : 23.976 (24000/1001/189150) FPS
Color space: YUV
Chroma subsampling : 4:2:0
Bit depth: 8 bits
Scan type: Progressive
Bits/(Pixel*Frame) : 0.154
Stream size: 2.87 GiB (98%)
Writing library: Zencoder Video Encoding System
Default: Yes
Forced : No
Color range: Limited
Color primaries: BT.709
Transfer characteristics : BT.709
Matrix coefficients: BT.709

Audio
ID : 2
Format : AAC LC
Format/Info: Advanced Audio Codec Low Complexity
Codec ID : A_AAC-2
Duration : 1 h 10 min
Bit rate : 128 kb/s
Channel(s) : 2 channels
Channel layout : L R
Sampling rate: 48.0 kHz
Frame rate : 46.875 FPS (1024 SPF)
Compression mode : Lossy
Stream size: 64.2 MiB (2%)
Language : English
Default: Yes
Forced : No






The.Ballad.of.Genesis.and.Lady.Jaye.2011.1080p.WEBRip.AAC2.0.x264-NOGRP.zip
还没有人收藏过本帖~
最新回复 (0)
返回
发新帖
即将对游客闭站,请注册账号备用!
影音屋为您提供最新的720P、1080P、2K、4K、原盘高清电影下载,内部交流社区,欢迎体验。影音屋,更多好电影待您发现!
加入福利电报群 加入福利企鹅群 淘宝天猫漏洞单