如资源无法下载,请在「交流」反馈!

[更 早][其他][剧情][BD-1080P]最后的诱惑 The.Last.Seduction.1994.1080p.BluRay.X264-AMIABLE 8.74GB


帖子完整标题:最后的诱惑 The.Last.Seduction.1994.1080p.BluRay.X264-AMIABLE 8.74GB



◎译  名 最后的诱惑
◎片  名 The Last Seduction
◎年  代 1994
◎产  地 英国,美国
◎类  别 剧情 / 惊悚 / 犯罪
◎语  言 英语
◎上映日期 1994-05-26
◎IMDb评分7/10 from 20678 users
◎IMDb链接https://www.imdb.com/title/tt0110308/
◎豆瓣评分 7.0/10 from 300 users
◎豆瓣链接 https://movie.douban.com/subject/1295296/
◎片  长 110 分钟
◎导  演 约翰·达尔 John Dahl
◎编  剧 史蒂夫·巴兰奇克 Steve Barancik
◎主  演 琳达·费奥伦蒂诺 Linda Fiorentino
     比尔·普尔曼 Bill Pullman
     Michelle Davison
     唐娜·W·斯科特 Donna W. Scott

◎标  签 美国 | 犯罪 | 情色 | 黑色电影 | 惊悚 | 1994 | 最后的诱惑 | 美国电影

◎简  介

  布丽姬(琳达?费奥伦蒂诺 Linda Fiorentino 饰)的丈夫是一名毒贩,不过她比她的丈夫更“毒”。她乘丈夫不留意的时候,将他贩毒所得的巨款洗掠一空,携款从美国繁华的纽约市跑到了西班牙巴塞罗那郊区的一个小镇上去享受她的快乐人生。布丽姬看上了当地天真无暇的帅哥康奥尼尔,同时,另一位金发美女也看上了康奥尼尔。老谋深算的布丽姬设下一个又一个的圈套牢牢套住了康奥尼尔,将情敌打得落花流水。看来布丽姬的人生将继续在她的掌控中顺利展开。

◎获奖情况

  第48届英国电影学院奖 ?(1995)
  电影奖最佳女主角(提名) 琳达·费奥伦蒂诺

Video
ID : 1
Format : AVC
Format/Info: Advanced Video Codec
Format profile : [email protected]
Format settings: CABAC / 4 Ref Frames
Format settings, CABAC : Yes
Format settings, Reference frames: 4 frames
Codec ID : V_MPEG4/ISO/AVC
Duration : 1 h 49 min
Bit rate : 10.8 Mb/s
Width: 1 920 pixels
Height : 1 080 pixels
Display aspect ratio : 16:9
Frame rate mode: Constant
Frame rate : 24.000 FPS
Color space: YUV
Chroma subsampling : 4:2:0
Bit depth: 8 bits
Scan type: Progressive
Bits/(Pixel*Frame) : 0.216
Stream size: 8.08 GiB (92%)
Writing library: x264 core 144 r2525 40bb568
Encoding settings: cabac=1 / ref=4 / deblock=1:-3:-3 / analyse=0x3:0x113 / me=umh / subme=8 / psy=1 / psy_rd=1.00:0.00 / mixed_ref=1 / me_range=16 / chroma_me=1 / trellis=1 / 8x8dct=1 / cqm=0 / deadzone=21,11 / fast_pskip=1 / chroma_qp_offset=-2 / threads=24 / lookahead_threads=4 / sliced_threads=0 / nr=0 / decimate=1 / interlaced=0 / bluray_compat=0 / constrained_intra=0 / bframes=3 / b_pyramid=2 / b_adapt=2 / b_bias=0 / direct=3 / weightb=1 / open_gop=0 / weightp=2 / keyint=240 / keyint_min=24 / scenecut=40 / intra_refresh=0 / rc_lookahead=50 / rc=2pass / mbtree=1 / bitrate=10750 / ratetol=1.0 / qcomp=0.60 / qpmin=0 / qpmax=69 / qpstep=4 / cplxblur=20.0 / qblur=0.5 / ip_ratio=1.40 / aq=1:1.00
Language : English
Default: Yes
Forced : No

Audio
ID : 2
Format : AC-3
Format/Info: Audio Coding 3
Commercial name: Dolby Digital
Codec ID : A_AC3
Duration : 1 h 49 min
Bit rate mode: Constant
Bit rate : 640 kb/s
Channel(s) : 6 channels
Channel layout : L R C LFE Ls Rs
Sampling rate: 48.0 kHz
Frame rate : 31.250 FPS (1536 SPF)
Compression mode : Lossy
Stream size: 503 MiB (6%)
Language : English
Service kind : Complete Main
Default: Yes
Forced : No

Text
ID : 3
Format : UTF-8
Codec ID : S_TEXT/UTF8
Codec ID/Info: UTF-8 Plain Text
Language : English
Default: No
Forced : No

Menu
00:00:00.000 : en:00:00:00.000
00:10:33.000 : en:00:10:33.000
00:19:06.000 : en:00:19:06.000
00:27:56.000 : en:00:27:56.000
00:39:49.000 : en:00:39:49.000
00:45:55.000 : en:00:45:55.000
00:58:42.375 : en:00:58:42.375
01:09:12.833 : en:01:09:12.833
01:16:45.000 : en:01:16:45.000
01:24:10.000 : en:01:24:10.000
01:30:13.000 : en:01:30:13.000
01:43:06.000 : en:01:43:06.000






The.Last.Seduction.1994.1080p.BluRay.X264-AMIABLE.zip
还没有人收藏过本帖~
最新回复 (0)
返回
发新帖
即将对游客闭站,请注册账号备用!
影音屋为您提供最新的720P、1080P、2K、4K、原盘高清电影下载,内部交流社区,欢迎体验。影音屋,更多好电影待您发现!
加入福利电报群 加入福利企鹅群 淘宝天猫漏洞单