如资源无法下载,请在「交流」反馈!

[更 早][欧美][惊悚][BD-1080P]大白鲨4/大白鲨4:复仇 Jaws.The.Revenge.1987.1080p.BluRay.x264-PSYCHD 8.74GB


帖子完整标题:大白鲨4/大白鲨4:复仇 Jaws.The.Revenge.1987.1080p.BluRay.x264-PSYCHD 8.74GB



◎译  名 大白鲨4/大白鲨4:复仇/大白鲨大报复/惊海寻仇
◎片  名 Jaws: The Revenge
◎年  代 1987
◎产  地 美国
◎类  别 惊悚
◎语  言 英语
◎上映日期 1987-07-17
◎IMDb评分3/10 from 40713 users
◎IMDb链接https://www.imdb.com/title/tt0093300/
◎豆瓣评分 5.5/10 from 739 users
◎豆瓣链接 https://movie.douban.com/subject/1301844/
◎片  长 89分钟
◎导  演 约瑟夫·萨金特 Joseph Sargent
◎编  剧 迈克尔·德古兹曼 Michael De Guzman / 彼得·本奇利 Peter Benchley
◎主  演 洛兰·加里 Lorraine Gary
     兰斯·盖斯特 Lance Guest
     马里奥·范·皮布尔斯 Mario Van Peebles
     迈克尔·凯恩 Michael Caine
     凯伦·杨 Karen Young
     朱迪丝·芭西 Judith Barsi
     J.D. Hall
     LaGloria Scott
     Marilyn Schreffler
     David Kann
     凯茜·卡瓦蒂妮 Cathy Cavadini
     James Martin Jr.
     马文·范·皮伯斯 Melvin Van Peebles
     Kaleena Kiff
     Daamen J. Krall
     埃尔登·汉森 Elden Henson
     林恩·惠特菲尔德 Lynn Whitfield
     Mitchell Anderson
     泰伦斯·比瑟 Terrence Beasor
     Charles Bartlett
     Edna Billotto
     李·菲耶罗 Lee Fierro

◎标  签 美国 | 惊悚 | 灾难 | 恐怖 | 大白鲨 | 美国电影 | 1987 | 电影

◎简  介

  渡假胜地阿米堤海滩曾多次有人被大白鲨侵袭,警长夫人艾伦对此心有余悸。多年后,其子西恩接替警长职位,他在一次出海巡逻中神秘失踪,显然是受到了大白鲨的侵袭,在艾伦悲痛之时,神秘的航海冒险家出现在她身边,于是他们一起联手对付大白鲨。

Video
ID : 1
Format : AVC
Format/Info: Advanced Video Codec
Format profile : [email protected]
Format settings: CABAC / 5 Ref Frames
Format settings, CABAC : Yes
Format settings, Reference frames: 5 frames
Codec ID : V_MPEG4/ISO/AVC
Duration : 1 h 30 min
Bit rate : 12.4 Mb/s
Width: 1 920 pixels
Height : 816 pixels
Display aspect ratio : 2.35:1
Frame rate mode: Constant
Frame rate : 23.976 (24000/1001/189150) FPS
Color space: YUV
Chroma subsampling : 4:2:0
Bit depth: 8 bits
Scan type: Progressive
Bits/(Pixel*Frame) : 0.329
Stream size: 7.62 GiB (87%)
Writing library: x264 core 148 r2692 64f4e24
Encoding settings: cabac=1 / ref=5 / deblock=1:-3:-3 / analyse=0x3:0x113 / me=umh / subme=8 / psy=1 / psy_rd=1.15:0.00 / mixed_ref=1 / me_range=32 / chroma_me=1 / trellis=1 / 8x8dct=1 / cqm=0 / deadzone=21,11 / fast_pskip=1 / chroma_qp_offset=-2 / threads=24 / lookahead_threads=4 / sliced_threads=0 / nr=0 / decimate=1 / interlaced=0 / bluray_compat=0 / constrained_intra=0 / bframes=3 / b_pyramid=2 / b_adapt=2 / b_bias=0 / direct=3 / weightb=1 / open_gop=0 / weightp=2 / keyint=240 / keyint_min=24 / scenecut=40 / intra_refresh=0 / rc_lookahead=50 / rc=2pass / mbtree=1 / bitrate=12370 / ratetol=1.0 / qcomp=0.60 / qpmin=0 / qpmax=69 / qpstep=4 / cplxblur=20.0 / qblur=0.5 / ip_ratio=1.40 / aq=3:0.80
Default: Yes
Forced : No
Statistics Tags Issue: no_variable_data 1970-01-01 00:00:00 / no_variable_data 2010-02-22 21:41:29
FromStats_BitRate: 12366869
FromStats_Duration : 01:30:10.697000000
FromStats_FrameCount : 129727
FromStats_StreamSize : 8364172808

Audio
ID : 2
Format : DTS
Format/Info: Digital Theater Systems
Codec ID : A_DTS
Duration : 1 h 30 min
Bit rate mode: Constant
Bit rate : 1 509 kb/s
Channel(s) : 6 channels
Channel layout : C L R Ls Rs LFE
Sampling rate: 48.0 kHz
Frame rate : 93.750 FPS (512 SPF)
Bit depth: 24 bits
Compression mode : Lossy
Stream size: 973 MiB (11%)
Language : English
Default: Yes
Forced : No
Statistics Tags Issue: no_variable_data 1970-01-01 00:00:00 / no_variable_data 2010-02-22 21:41:29
FromStats_BitRate: 1508999
FromStats_Duration : 01:30:10.699000000
FromStats_FrameCount : 507253
FromStats_StreamSize : 1020593036

Text #1
ID : 3
Format : UTF-8
Codec ID : S_TEXT/UTF8
Codec ID/Info: UTF-8 Plain Text
Language : English
Default: No
Forced : No
Statistics Tags Issue: no_variable_data 1970-01-01 00:00:00 / no_variable_data 2010-02-22 21:41:29
FromStats_BitRate: 67
FromStats_Duration : 01:23:32.341000000
FromStats_FrameCount : 1279
FromStats_StreamSize : 42048

Text #2
ID : 4
Format : UTF-8
Codec ID : S_TEXT/UTF8
Codec ID/Info: UTF-8 Plain Text
Title: SDH
Language : English
Default: No
Forced : No
Statistics Tags Issue: no_variable_data 1970-01-01 00:00:00 / no_variable_data 2010-02-22 21:41:29
FromStats_BitRate: 71
FromStats_Duration : 01:23:36.637000000
FromStats_FrameCount : 1406
FromStats_StreamSize : 45126

Menu
00:00:00.000 : en:00:00:00.000
00:02:42.037 : en:00:02:42.037
00:07:25.945 : en:00:07:25.945
00:11:02.328 : en:00:11:02.328
00:15:51.409 : en:00:15:51.409
00:19:33.381 : en:00:19:33.381
00:22:55.583 : en:00:22:55.583
00:25:12.219 : en:00:25:12.219
00:27:34.862 : en:00:27:34.862
00:33:10.822 : en:00:33:10.822
00:38:13.500 : en:00:38:13.500
00:42:16.743 : en:00:42:16.743
00:47:30.139 : en:00:47:30.139
00:53:17.194 : en:00:53:17.194
00:57:59.810 : en:00:57:59.810
01:03:06.700 : en:01:03:06.700
01:09:06.309 : en:01:09:06.309
01:14:33.386 : en:01:14:33.386
01:20:15.519 : en:01:20:15.519
01:25:14.568 : en:01:25:14.568






Jaws.The.Revenge.1987.1080p.BluRay.x264-PSYCHD.zip
还没有人收藏过本帖~
最新回复 (0)
返回
发新帖
即将对游客闭站,请注册账号备用!
影音屋为您提供最新的720P、1080P、2K、4K、原盘高清电影下载,内部交流社区,欢迎体验。影音屋,更多好电影待您发现!
加入福利电报群 加入福利企鹅群 淘宝天猫漏洞单