如资源无法下载,请在「交流」反馈!

[更 早][其他][恐怖][4K-原盘]暗夜之女 Daughters.of.Darkness.1971.2160p.BluRay.REMUX.HEVC.DTS-HD.MA.TrueHD.7.1.Atm


帖子完整标题:暗夜之女 Daughters.of.Darkness.1971.2160p.BluRay.REMUX.HEVC.DTS-HD.MA.TrueHD.7.1.Atmos-FGT 63.71GB



◎译  名 暗夜之女/Daughter of Darkness/黑暗
◎片  名 Les lèvres rouges
◎年  代 1971
◎产  地 比利时,法国,西德
◎类  别 恐怖
◎语  言 荷兰语,英语
◎上映日期 1971-05-28
◎IMDb评分6.6/10 from 4701 users
◎IMDb链接https://www.imdb.com/title/tt0067690/
◎豆瓣评分 6.6/10 from 220 users
◎豆瓣链接 https://movie.douban.com/subject/1300178/
◎片  长 USA: 100 分钟(uncut version)
◎导  演 哈里·库默 Harry Kümel
◎编  剧 哈里·库默 Harry Kümel / Pierre Drouot
◎主  演 德菲因·塞里格 Delphine Seyrig
     约翰·卡伦 John Karlen
     丹妮尔·维梅特 Danielle Ouimet
     Andrea Rau
     Paul Esser
     Georges Jamin
     Joris Collet
     冯斯·罗德麦克斯 Fons Rademakers

◎标  签 吸血鬼 | 恐怖 | 比利时 | 1970s | 法国 | 1971 | 德国 | 惊悚

◎简  介

  A 300-year-old lesbian vampire and her lover stay at a posh European resort. They seduce a sadistic husband and his beautiful wife. The husband is soon found dead, and his wife joins the two vampires.

Video #1
ID : 1
ID in the original source medium : 4113 (0x1011)
Format : HEVC
Format/Info: High Efficiency Video Coding
Format profile : Main [email protected]@High
HDR format : SMPTE ST 2086, HDR10 compatible
Codec ID : V_MPEGH/ISO/HEVC
Duration : 1 h 40 min
Bit rate : 76.5 Mb/s
Width: 3 840 pixels
Height : 2 160 pixels
Display aspect ratio : 16:9
Frame rate mode: Constant
Frame rate : 23.976 (24000/1001/189150) FPS
Color space: YUV
Chroma subsampling : 4:2:0 (Type 2)
Bit depth: 10 bits
Bits/(Pixel*Frame) : 0.385
Stream size: 53.5 GiB (84%)
Title: Daughters.of.Darkness.1971.2160p.BluRay.REMUX.HEVC.DTS-HD.MA.TrueHD.7.1.Atmos-FGT
Language : English
Default: Yes
Forced : No
Color range: Limited
Color primaries: BT.2020
Transfer characteristics : PQ
Matrix coefficients: BT.2020 non-constant
Mastering display color primaries: Display P3
Mastering display luminance: min: 0.0001 cd/m2, max: 1000 cd/m2
Original source medium : Blu-ray

Video #2
ID : 2
ID in the original source medium : 4117 (0x1015)
Format : HEVC
Format/Info: High Efficiency Video Coding
Format profile : Main [email protected]@High
HDR format : SMPTE ST 2086, HDR10 compatible
Codec ID : V_MPEGH/ISO/HEVC
Duration : 1 h 40 min
Bit rate : 4 369 kb/s
Width: 1 920 pixels
Height : 1 080 pixels
Display aspect ratio : 16:9
Frame rate mode: Constant
Frame rate : 23.976 (24000/1001/189150) FPS
Color space: YUV
Chroma subsampling : 4:2:0 (Type 2)
Bit depth: 10 bits
Bits/(Pixel*Frame) : 0.088
Stream size: 3.06 GiB (5%)
Title: Daughters.of.Darkness.1971.2160p.BluRay.REMUX.HEVC.DTS-HD.MA.TrueHD.7.1.Atmos-FGT
Default: No
Forced : No
Color range: Limited
Color primaries: BT.2020
Transfer characteristics : PQ
Matrix coefficients: BT.2020 non-constant
Mastering display color primaries: Display P3
Mastering display luminance: min: 0.0001 cd/m2, max: 1000 cd/m2
Original source medium : Blu-ray

Audio #1
ID : 3
ID in the original source medium : 4352 (0x1100)
Format : MLP FBA 16-ch
Format/Info: Meridian Lossless Packing FBA with 16-channel presentation
Commercial name: Dolby TrueHD with Dolby Atmos
Codec ID : A_TRUEHD
Duration : 1 h 40 min
Bit rate mode: Variable
Bit rate : 3 294 kb/s
Maximum bit rate : 4 953 kb/s
Channel(s) : 8 channels
Channel layout : L R C LFE Ls Rs Lb Rb
Sampling rate: 48.0 kHz
Frame rate : 1 200.000 FPS (40 SPF)
Compression mode : Lossless
Stream size: 2.30 GiB (4%)
Title: Daughters.of.Darkness.1971.2160p.BluRay.REMUX.HEVC.DTS-HD.MA.TrueHD.7.1.Atmos-FGT
Language : English
Default: Yes
Forced : No
Original source medium : Blu-ray
Number of dynamic objects: 11
Bed channel count: 1 channel
Bed channel configuration: LFE

Audio #2
ID : 4
Format : DTS XLL
Format/Info: Digital Theater Systems
Commercial name: DTS-HD Master Audio
Codec ID : A_DTS
Duration : 1 h 40 min
Bit rate mode: Variable
Bit rate : 3 735 kb/s
Channel(s) : 8 channels
Channel layout : C L R LFE Lb Rb Lss Rss
Sampling rate: 48.0 kHz
Frame rate : 93.750 FPS (512 SPF)
Bit depth: 24 bits
Compression mode : Lossless
Stream size: 2.61 GiB (4%)
Title: Daughters.of.Darkness.1971.2160p.BluRay.REMUX.HEVC.DTS-HD.MA.TrueHD.7.1.Atmos-FGT
Language : English
Default: No
Forced : No

Audio #3
ID : 5
ID in the original source medium : 4352 (0x1100)
Format : AC-3
Format/Info: Audio Coding 3
Commercial name: Dolby Digital
Codec ID : A_AC3
Duration : 1 h 40 min
Bit rate mode: Constant
Bit rate : 640 kb/s
Channel(s) : 6 channels
Channel layout : L R C LFE Ls Rs
Sampling rate: 48.0 kHz
Frame rate : 31.250 FPS (1536 SPF)
Compression mode : Lossy
Stream size: 458 MiB (1%)
Title: Daughters.of.Darkness.1971.2160p.BluRay.REMUX.HEVC.DTS-HD.MA.TrueHD.7.1.Atmos-FGT
Language : English
Service kind : Complete Main
Default: No
Forced : No
Original source medium : Blu-ray

Audio #4
ID : 6
ID in the original source medium : 4354 (0x1102)
Format : DTS XLL
Format/Info: Digital Theater Systems
Commercial name: DTS-HD Master Audio
Codec ID : A_DTS
Duration : 1 h 40 min
Bit rate mode: Variable
Bit rate : 817 kb/s
Channel(s) : 1 channel
Channel layout : C
Sampling rate: 48.0 kHz
Frame rate : 93.750 FPS (512 SPF)
Bit depth: 16 bits
Compression mode : Lossless
Stream size: 585 MiB (1%)
Title: Daughters.of.Darkness.1971.2160p.BluRay.REMUX.HEVC.DTS-HD.MA.TrueHD.7.1.Atmos-FGT
Language : English
Default: No
Forced : No
Original source medium : Blu-ray

Audio #5
ID : 7
ID in the original source medium : 4355 (0x1103)
Format : DTS XLL
Format/Info: Digital Theater Systems
Commercial name: DTS-HD Master Audio
Codec ID : A_DTS
Duration : 1 h 40 min
Bit rate mode: Variable
Bit rate : 1 048 kb/s
Channel(s) : 1 channel
Channel layout : C
Sampling rate: 48.0 kHz
Frame rate : 93.750 FPS (512 SPF)
Bit depth: 24 bits
Compression mode : Lossless
Stream size: 751 MiB (1%)
Title: Daughters.of.Darkness.1971.2160p.BluRay.REMUX.HEVC.DTS-HD.MA.TrueHD.7.1.Atmos-FGT
Language : French
Default: No
Forced : No
Original source medium : Blu-ray

Audio #6
ID : 8
ID in the original source medium : 4356 (0x1104)
Format : AC-3
Format/Info: Audio Coding 3
Commercial name: Dolby Digital
Codec ID : A_AC3
Duration : 1 h 40 min
Bit rate mode: Constant
Bit rate : 192 kb/s
Channel(s) : 2 channels
Channel layout : L R
Sampling rate: 48.0 kHz
Frame rate : 31.250 FPS (1536 SPF)
Compression mode : Lossy
Stream size: 137 MiB (0%)
Title: Daughters.of.Darkness.1971.2160p.BluRay.REMUX.HEVC.DTS-HD.MA.TrueHD.7.1.Atmos-FGT
Language : English
Service kind : Complete Main
Default: No
Forced : No
Original source medium : Blu-ray

Audio #7
ID : 9
ID in the original source medium : 4357 (0x1105)
Format : AC-3
Format/Info: Audio Coding 3
Commercial name: Dolby Digital
Codec ID : A_AC3
Duration : 1 h 40 min
Bit rate mode: Constant
Bit rate : 192 kb/s
Channel(s) : 2 channels
Channel layout : L R
Sampling rate: 48.0 kHz
Frame rate : 31.250 FPS (1536 SPF)
Compression mode : Lossy
Stream size: 137 MiB (0%)
Title: Daughters.of.Darkness.1971.2160p.BluRay.REMUX.HEVC.DTS-HD.MA.TrueHD.7.1.Atmos-FGT
Language : English
Service kind : Complete Main
Default: No
Forced : No
Original source medium : Blu-ray

Audio #8
ID : 10
ID in the original source medium : 4358 (0x1106)
Format : AC-3
Format/Info: Audio Coding 3
Commercial name: Dolby Digital
Codec ID : A_AC3
Duration : 1 h 40 min
Bit rate mode: Constant
Bit rate : 192 kb/s
Channel(s) : 2 channels
Channel layout : L R
Sampling rate: 48.0 kHz
Frame rate : 31.250 FPS (1536 SPF)
Compression mode : Lossy
Stream size: 137 MiB (0%)
Title: Daughters.of.Darkness.1971.2160p.BluRay.REMUX.HEVC.DTS-HD.MA.TrueHD.7.1.Atmos-FGT
Language : English
Service kind : Complete Main
Default: No
Forced : No
Original source medium : Blu-ray

Text #1
ID : 11
Format : UTF-8
Codec ID : S_TEXT/UTF8
Codec ID/Info: UTF-8 Plain Text
Duration : 1 h 36 min
Bit rate : 36 b/s
Count of elements: 817
Stream size: 25.9 KiB (0%)
Title: English-SRT
Language : English
Default: Yes
Forced : No

Text #2
ID : 12
ID in the original source medium : 4768 (0x12A0)
Format : PGS
Muxing mode: zlib
Codec ID : S_HDMV/PGS
Codec ID/Info: Picture based subtitle format used on BDs/HD-DVDs
Duration : 1 h 37 min
Bit rate : 27.1 kb/s
Count of elements: 1864
Stream size: 18.9 MiB (0%)
Title: English-PGS
Language : English
Default: No
Forced : No
Original source medium : Blu-ray

Text #3
ID : 13
ID in the original source medium : 4769 (0x12A1)
Format : PGS
Muxing mode: zlib
Codec ID : S_HDMV/PGS
Codec ID/Info: Picture based subtitle format used on BDs/HD-DVDs
Duration : 1 h 37 min
Bit rate : 24.6 kb/s
Count of elements: 1642
Stream size: 17.2 MiB (0%)
Title: French-PGS
Language : French
Default: No
Forced : No
Original source medium : Blu-ray

Text #4
ID : 14
ID in the original source medium : 4770 (0x12A2)
Format : PGS
Muxing mode: zlib
Codec ID : S_HDMV/PGS
Codec ID/Info: Picture based subtitle format used on BDs/HD-DVDs
Duration : 1 h 37 min
Bit rate : 23.4 kb/s
Count of elements: 1642
Stream size: 16.3 MiB (0%)
Title: Spanish-PGS
Language : Spanish
Default: No
Forced : No
Original source medium : Blu-ray

Text #5
ID : 15
ID in the original source medium : 4771 (0x12A3)
Format : PGS
Muxing mode: zlib
Codec ID : S_HDMV/PGS
Codec ID/Info: Picture based subtitle format used on BDs/HD-DVDs
Duration : 1 h 36 min
Bit rate : 23.8 kb/s
Count of elements: 1684
Stream size: 16.4 MiB (0%)
Title: English-PGS
Language : English
Default: No
Forced : No
Original source medium : Blu-ray

Menu
00:00:00.000 : en:Chapter 01
00:01:15.075 : en:Chapter 02
00:06:14.374 : en:Chapter 03
00:11:05.790 : en:Chapter 04
00:16:01.961 : en:Chapter 05
00:18:45.999 : en:Chapter 06
00:22:20.213 : en:Chapter 07
00:27:59.928 : en:Chapter 08
00:31:05.738 : en:Chapter 09
00:37:56.983 : en:Chapter 10
00:41:23.481 : en:Chapter 11
00:45:43.657 : en:Chapter 12
00:49:11.239 : en:Chapter 13
00:52:46.079 : en:Chapter 14
00:58:27.504 : en:Chapter 15
01:03:12.663 : en:Chapter 16
01:08:13.798 : en:Chapter 17
01:12:44.360 : en:Chapter 18
01:17:13.629 : en:Chapter 19
01:20:24.820 : en:Chapter 20
01:26:49.913 : en:Chapter 21
01:33:53.628 : en:Chapter 22
01:36:56.477 : en:Chapter 23
01:38:54.929 : en:Chapter 24






Daughters.of.Darkness.1971.2160p.BluRay.REMUX.HEVC.DTS-HD.MA.TrueHD.7.1.Atmos-FGT.zip
还没有人收藏过本帖~
最新回复 (0)
返回
发新帖
即将对游客闭站,请注册账号备用!
影音屋为您提供最新的720P、1080P、2K、4K、原盘高清电影下载,内部交流社区,欢迎体验。影音屋,更多好电影待您发现!
加入福利电报群 加入福利企鹅群 淘宝天猫漏洞单