如资源无法下载,请在「交流」反馈!

[更 早][欧美][惊悚][BD-1080P]大白鲨3/大白鲨3D Jaws.3.1983.1080p.BluRay.x264-PSYCHD 9.83GB


帖子完整标题:大白鲨3/大白鲨3D Jaws.3.1983.1080p.BluRay.x264-PSYCHD 9.83GB



◎译  名 大白鲨3/大白鲨3D
◎片  名 Jaws 3-D
◎年  代 1983
◎产  地 美国
◎类  别 惊悚
◎语  言 英语
◎上映日期 1983-07-22
◎IMDb评分3.7/10 from 39352 users
◎IMDb链接https://www.imdb.com/title/tt0085750/
◎豆瓣评分 5.8/10 from 1945 users
◎豆瓣链接 https://movie.douban.com/subject/1303765/
◎片  长 99 分钟
◎导  演 乔·阿尔夫斯 Joe Alves
◎编  剧 彼得·本奇利 Peter Benchley / 理查德·麦瑟森 Richard Matheson / 迈克尔·凯恩 Michael Kane / 格登·特鲁布拉德 Guerdon Trueblood / Guerdon Trueblood / 卡尔·哥特列布 Carl Gottlieb
◎主  演 丹尼斯·奎德 Dennis Quaid
     贝丝·阿姆斯特朗 Bess Armstrong
     西蒙·麦考金戴尔 Simon MacCorkindale
     小路易斯·格赛特 Louis Gossett Jr.
     约翰·普奇 John Putch
     莉·汤普森 Lea Thompson
     Carl Mazzocone
     乔恩·弗雷达 Jon Freda
     Steve Mellor
     P.H.莫里亚蒂 P.H. Moriarty
     凯·史蒂文斯 Kaye Stevens
     Kevin Tyson

◎标  签 惊悚 | 美国 | 灾难 | 恐怖 | 大白鲨 | 美国电影 | 1983 | 电影

◎简  介

  在一个开幕典礼中,席中包括许多重要人物,和一只未受邀请的小白鲨,它由一个错误的海口进入了公园的湖里,然后死了,它那35尺大的母鲨为了它的小孩,制造了前所未有的大恐惧……

Video
ID : 1
Format : AVC
Format/Info: Advanced Video Codec
Format profile : [email protected]
Format settings: CABAC / 5 Ref Frames
Format settings, CABAC : Yes
Format settings, Reference frames: 5 frames
Codec ID : V_MPEG4/ISO/AVC
Duration : 1 h 38 min
Bit rate : 12.8 Mb/s
Width: 1 920 pixels
Height : 808 pixels
Display aspect ratio : 2.40:1
Frame rate mode: Constant
Frame rate : 23.976 (24000/1001/189150) FPS
Color space: YUV
Chroma subsampling : 4:2:0
Bit depth: 8 bits
Scan type: Progressive
Bits/(Pixel*Frame) : 0.344
Stream size: 8.60 GiB (87%)
Writing library: x264 core 148 r2692 64f4e24
Encoding settings: cabac=1 / ref=5 / deblock=1:-3:-3 / analyse=0x3:0x113 / me=umh / subme=8 / psy=1 / psy_rd=1.15:0.00 / mixed_ref=1 / me_range=32 / chroma_me=1 / trellis=1 / 8x8dct=1 / cqm=0 / deadzone=21,11 / fast_pskip=1 / chroma_qp_offset=-2 / threads=18 / lookahead_threads=3 / sliced_threads=0 / nr=0 / decimate=1 / interlaced=0 / bluray_compat=0 / constrained_intra=0 / bframes=3 / b_pyramid=2 / b_adapt=2 / b_bias=0 / direct=3 / weightb=1 / open_gop=0 / weightp=2 / keyint=240 / keyint_min=24 / scenecut=40 / intra_refresh=0 / rc_lookahead=50 / rc=2pass / mbtree=1 / bitrate=12812 / ratetol=1.0 / qcomp=0.60 / qpmin=0 / qpmax=69 / qpstep=4 / cplxblur=20.0 / qblur=0.5 / ip_ratio=1.40 / aq=3:0.80
Default: Yes
Forced : No
Statistics Tags Issue: no_variable_data 1970-01-01 00:00:00 / no_variable_data 2010-02-22 21:41:29
FromStats_BitRate: 12800720
FromStats_Duration : 01:38:20.937000000
FromStats_FrameCount : 141481
FromStats_StreamSize : 9442030600

Audio
ID : 2
Format : DTS
Format/Info: Digital Theater Systems
Codec ID : A_DTS
Duration : 1 h 38 min
Bit rate mode: Constant
Bit rate : 1 509 kb/s
Channel(s) : 2 channels
Channel layout : Lt Rt
Sampling rate: 48.0 kHz
Frame rate : 93.750 FPS (512 SPF)
Bit depth: 24 bits
Compression mode : Lossy
Stream size: 1.04 GiB (11%)
Language : English
Default: Yes
Forced : No
Statistics Tags Issue: no_variable_data 1970-01-01 00:00:00 / no_variable_data 2010-02-22 21:41:29
FromStats_BitRate: 1508999
FromStats_Duration : 01:38:20.939000000
FromStats_FrameCount : 553213
FromStats_StreamSize : 1113064556

Text #1
ID : 3
Format : UTF-8
Codec ID : S_TEXT/UTF8
Codec ID/Info: UTF-8 Plain Text
Language : English
Default: No
Forced : No
Statistics Tags Issue: no_variable_data 1970-01-01 00:00:00 / no_variable_data 2010-02-22 21:41:29
FromStats_BitRate: 57
FromStats_Duration : 01:32:10.733000000
FromStats_FrameCount : 1178
FromStats_StreamSize : 39742

Text #2
ID : 4
Format : UTF-8
Codec ID : S_TEXT/UTF8
Codec ID/Info: UTF-8 Plain Text
Title: SDH
Language : English
Default: No
Forced : No
Statistics Tags Issue: no_variable_data 1970-01-01 00:00:00 / no_variable_data 2010-02-22 21:41:29
FromStats_BitRate: 61
FromStats_Duration : 01:34:24.033000000
FromStats_FrameCount : 1298
FromStats_StreamSize : 43432

Menu
00:00:00.000 : en:00:00:00.000
00:04:41.490 : en:00:04:41.490
00:12:55.441 : en:00:12:55.441
00:17:37.640 : en:00:17:37.640
00:21:50.017 : en:00:21:50.017
00:27:01.328 : en:00:27:01.328
00:32:08.176 : en:00:32:08.176
00:37:56.191 : en:00:37:56.191
00:43:36.072 : en:00:43:36.072
00:48:50.427 : en:00:48:50.427
00:51:07.398 : en:00:51:07.398
00:58:03.522 : en:00:58:03.522
01:01:13.962 : en:01:01:13.962
01:04:21.941 : en:01:04:21.941
01:10:05.326 : en:01:10:05.326
01:15:27.565 : en:01:15:27.565
01:20:13.100 : en:01:20:13.100
01:25:02.472 : en:01:25:02.472
01:30:23.501 : en:01:30:23.501
01:34:24.117 : en:01:34:24.117






Jaws.3.1983.1080p.BluRay.x264-PSYCHD.zip
还没有人收藏过本帖~
最新回复 (0)
返回
发新帖
即将对游客闭站,请注册账号备用!
影音屋为您提供最新的720P、1080P、2K、4K、原盘高清电影下载,内部交流社区,欢迎体验。影音屋,更多好电影待您发现!
加入福利电报群 加入福利企鹅群 淘宝天猫漏洞单