如资源无法下载,请在「交流」反馈!

[2019][欧美][恐怖][WEB-1080P]杀手疗法 Killer.Therapy.2019.1080p.WEB-DL.DD5.1.H264-FGT 3.26GB


帖子完整标题:杀手疗法 Killer.Therapy.2019.1080p.WEB-DL.DD5.1.H264-FGT 3.26GB



◎译  名 杀手疗法
◎片  名 Killer Therapy
◎年  代 2019
◎产  地 美国
◎类  别 恐怖
◎语  言 英语
◎上映日期 2019-03-30(limited)
◎IMDb评分8.9/10 from 19 users
◎IMDb链接https://www.imdb.com/title/tt9029572/
◎豆瓣评分 /10 from 0 users
◎豆瓣链接 https://movie.douban.com/subject/34810952/
◎主  演 斯凯尔·卡莱布 Skyler Caleb
     Lola Davidson

◎简  介

  A mentally unstable young man goes on a mission to hunt down and murder all the therapists he blames for messing up his mind and his life.

Video
ID : 1
Format : AVC
Format/Info: Advanced Video Codec
Format profile : [email protected]
Format settings: CABAC / 5 Ref Frames
Format settings, CABAC : Yes
Format settings, Reference frames: 5 frames
Codec ID : V_MPEG4/ISO/AVC
Duration : 1 h 34 min
Bit rate : 4 558 kb/s
Width: 1 908 pixels
Height : 804 pixels
Display aspect ratio : 2.40:1
Frame rate mode: Constant
Frame rate : 23.976 (24000/1001/189150) FPS
Color space: YUV
Chroma subsampling : 4:2:0
Bit depth: 8 bits
Scan type: Progressive
Bits/(Pixel*Frame) : 0.124
Stream size: 3.00 GiB (92%)
Language : English
Default: Yes
Forced : No
Color range: Limited
Color primaries: BT.709
Transfer characteristics : BT.709
Matrix coefficients: BT.709

Audio
ID : 2
Format : AC-3
Format/Info: Audio Coding 3
Commercial name: Dolby Digital
Codec ID : A_AC3
Duration : 1 h 34 min
Bit rate mode: Constant
Bit rate : 384 kb/s
Channel(s) : 6 channels
Channel layout : L R C LFE Ls Rs
Sampling rate: 48.0 kHz
Frame rate : 31.250 FPS (1536 SPF)
Compression mode : Lossy
Stream size: 259 MiB (8%)
Language : English
Service kind : Complete Main
Default: Yes
Forced : No

Text
ID : 3
Format : UTF-8
Codec ID : S_TEXT/UTF8
Codec ID/Info: UTF-8 Plain Text
Duration : 1 h 30 min
Bit rate : 42 b/s
Count of elements: 1122
Stream size: 27.9 KiB (0%)
Language : English
Default: Yes
Forced : No






Killer.Therapy.2019.1080p.WEB-DL.DD5.1.H264-FGT.zip
还没有人收藏过本帖~
最新回复 (0)
返回
发新帖
即将对游客闭站,请注册账号备用!
影音屋为您提供最新的720P、1080P、2K、4K、原盘高清电影下载,内部交流社区,欢迎体验。影音屋,更多好电影待您发现!
加入福利电报群 加入福利企鹅群 淘宝天猫漏洞单