如资源无法下载,请在「交流」反馈!

[更 早][欧美][剧情][BD-720P]哭泣的玫瑰/歌坛巨星莎莲娜 Selena.1997.EXTENDED.720p.BluRay.x264-AMIABLE 5.86GB


帖子完整标题:哭泣的玫瑰/歌坛巨星莎莲娜 Selena.1997.EXTENDED.720p.BluRay.x264-AMIABLE 5.86GB



◎译  名 哭泣的玫瑰 / 歌坛巨星莎莲娜
◎片  名 Selena
◎年  代 1997
◎产  地 美国
◎类  别 剧情 / 音乐 / 传记
◎语  言 英语 / 西班牙语
◎上映日期 1997-03-21(美国)
◎IMDb评分 6.8/10 from 23896 users
◎IMDb链接 https://www.imdb.com/title/tt0120094
◎豆瓣评分 7.2/10 from 563 users
◎豆瓣链接 https://movie.douban.com/subject/1293326/
◎片  长 127 分钟
◎导  演 格雷戈里·内瓦 Gregory Nava
◎编  剧 格雷戈里·内瓦 Gregory Nava
◎主  演 詹妮弗·洛佩兹 Jennifer Lopez
      爱德华·詹姆斯·奥莫斯 Edward James Olmos
      乔恩·塞达 Jon Seda


◎标  签 传记 | 音乐 | 美国 | JenniferLopez | 美国电影 | 1997 | 爱情 | 人物传记

◎简  介

  赛琳娜(詹妮弗·洛佩兹 Jennifer Lopez 饰)从小就展现出了过人的音乐天赋,长相甜美可爱的她热爱唱歌和跳舞,这为她之后的人生历程奠定了坚实的基础。父亲埃布拉罕(爱德华·詹姆斯·奥莫斯 Edward James Olmos 饰)坚定的支持着赛琳娜向自己的理想前进,果不其然,没过多久,年纪轻轻的赛琳娜便成为了拉丁美洲最受欢迎的女歌手之一。
  在事业蒸蒸日上的同时,赛琳娜邂逅了自己的一生挚爱,那就是之后成为了他丈夫的克里斯(乔恩·塞达 Jon Seda 饰),在亲人,爱人,朋友和歌迷会的陪伴下,赛琳娜来到了人生的顶峰,此时没有人知道,这个快乐的女孩正在度过的,竟然是她人生最后的岁月。

Video
ID : 1
Format : AVC
Format/Info : Advanced Video Codec
Format profile : [email protected]
Format settings : CABAC / 8 Ref Frames
Format settings, CABAC : Yes
Format settings, Reference frames : 8 frames
Codec ID : V_MPEG4/ISO/AVC
Duration : 2 h 13 min
Bit rate : 5 597 kb/s
Width : 1 280 pixels
Height : 534 pixels
Display aspect ratio : 2.40:1
Frame rate mode : Constant
Frame rate : 23.976 (24000/1001/189150) FPS
Color space : YUV
Chroma subsampling : 4:2:0
Bit depth : 8 bits
Scan type : Progressive
Bits/(Pixel*Frame) : 0.342
Stream size : 5.23 GiB (89%)
Writing library : x264 core 161 r3018 db0d417
Encoding settings : cabac=1 / ref=8 / deblock=1:-3:-3 / analyse=0x3:0x133 / me=umh / subme=9 / psy=1 / psy_rd=1.05:0.00 / mixed_ref=1 / me_range=24 / chroma_me=1 / trellis=2 / 8x8dct=1 / cqm=0 / deadzone=21,11 / fast_pskip=0 / chroma_qp_offset=-2 / threads=17 / lookahead_threads=1 / sliced_threads=0 / nr=0 / decimate=0 / interlaced=0 / bluray_compat=0 / constrained_intra=0 / bframes=3 / b_pyramid=2 / b_adapt=2 / b_bias=0 / direct=3 / weightb=1 / open_gop=0 / weightp=2 / keyint=250 / keyint_min=23 / scenecut=40 / intra_refresh=0 / rc=crf / mbtree=0 / crf=17.0 / qcomp=0.60 / qpmin=0 / qpmax=69 / qpstep=4 / ip_ratio=1.40 / pb_ratio=1.30 / aq=3:0.70
Default : Yes
Forced : No
Color range : Limited
Matrix coefficients : BT.709

Audio
ID : 2
Format : AC-3
Format/Info : Audio Coding 3
Commercial name : Dolby Digital
Codec ID : A_AC3
Duration : 2 h 13 min
Bit rate mode : Constant
Bit rate : 640 kb/s
Channel(s) : 6 channels
Channel layout : L R C LFE Ls Rs
Sampling rate : 48.0 kHz
Frame rate : 31.250 FPS (1536 SPF)
Bit depth : 16 bits
Compression mode : Lossy
Stream size : 613 MiB (10%)
Title : AC-3 5.1
Language : English
Service kind : Complete Main
Default : Yes
Forced : No

Text #1
ID : 3
Format : UTF-8
Codec ID : S_TEXT/UTF8
Codec ID/Info : UTF-8 Plain Text
Duration : 2 h 12 min
Bit rate : 71 b/s
Count of elements : 2064
Stream size : 69.4 KiB (0%)
Title : Stripped SRT
Language : English
Default : No
Forced : No

Text #2
ID : 4
Format : UTF-8
Codec ID : S_TEXT/UTF8
Codec ID/Info : UTF-8 Plain Text
Duration : 2 h 13 min
Bit rate : 79 b/s
Count of elements : 2366
Stream size : 78.1 KiB (0%)
Title : SDH SRT
Language : English
Default : No
Forced : No

Text #3
ID : 5
Format : PGS
Muxing mode : zlib
Codec ID : S_HDMV/PGS
Codec ID/Info : Picture based subtitle format used on BDs/HD-DVDs
Duration : 2 h 13 min
Bit rate : 41.5 kb/s
Count of elements : 4732
Stream size : 39.7 MiB (1%)
Title : English SDH
Language : English
Default : No
Forced : No

Menu
00:00:00.000 : en:Chapter 01
00:03:36.174 : en:Chapter 02
00:07:15.852 : en:Chapter 03
00:11:23.474 : en:Chapter 04
00:14:13.019 : en:Chapter 05
00:18:18.597 : en:Chapter 06
00:22:41.944 : en:Chapter 07
00:23:44.173 : en:Chapter 08
00:25:57.931 : en:Chapter 09
00:33:48.109 : en:Chapter 10
00:36:03.411 : en:Chapter 11
00:40:03.151 : en:Chapter 12
00:43:51.504 : en:Chapter 13
00:47:47.573 : en:Chapter 14
00:51:59.950 : en:Chapter 15
00:54:49.786 : en:Chapter 16
00:58:02.229 : en:Chapter 17
01:01:55.879 : en:Chapter 18
01:04:05.842 : en:Chapter 19
01:07:09.859 : en:Chapter 20
01:16:26.207 : en:Chapter 21
01:19:02.905 : en:Chapter 22
01:23:12.654 : en:Chapter 23
01:25:13.775 : en:Chapter 24
01:29:57.350 : en:Chapter 25
01:31:39.619 : en:Chapter 26
01:35:04.699 : en:Chapter 27
01:42:29.060 : en:Chapter 28
01:47:09.131 : en:Chapter 29
01:49:47.998 : en:Chapter 30
01:50:45.889 : en:Chapter 31
01:54:30.739 : en:Chapter 32
01:55:23.625 : en:Chapter 33
01:57:31.836 : en:Chapter 34
02:00:23.091 : en:Chapter 35
02:06:57.318 : en:Chapter 36
02:10:12.763 : en:Chapter 37






Selena.1997.EXTENDED.720p.BluRay.x264-AMIABLE.zip
还没有人收藏过本帖~
最新回复 (0)
返回