如资源无法下载,请在「交流」反馈!

[更 早][欧美][剧情][BD-1080P]黑寡妇 Black.Widow.1954.1080p.BluRay.x264-PSYCHD 9.84GB


帖子完整标题:黑寡妇 Black.Widow.1954.1080p.BluRay.x264-PSYCHD 9.84GB



◎译  名 黑寡妇
◎片  名 Black Widow
◎年  代 1954
◎产  地 美国
◎类  别 剧情 / 悬疑
◎语  言 英语
◎上映日期 1954-10-28
◎IMDb评分 6.7/10 from 2204 users
◎IMDb链接 https://www.imdb.com/title/tt0046791
◎豆瓣评分 0/10 from 0 users
◎豆瓣链接 https://movie.douban.com/subject/2567609/
◎片  长 95 分钟
◎导  演 Nunnally Johnson
◎编  剧 Nunnally Johnson / Hugh Wheeler
◎主  演 金吉·罗杰斯 Ginger Rogers
      吉恩·蒂尔尼 Gene Tierney
      凡·赫夫林 Van Heflin


◎标  签 美国 | 黑色电影 | 美国电影 | GingerRogers | 1950s | 1954 | Ginger_Rogers | Film-Noir

◎简  介

  皮特在一次晚会上邂逅了无人搭讪的南希,于是两人一直都保持联系,关系越来越好。然而某天,皮特两夫妇回家发现了南希上吊而死,二人报了警。在警方的侦查过程中发现南希并不是自杀,而一切的矛头都指向皮特身上……

Video
ID : 1
Format : AVC
Format/Info : Advanced Video Codec
Format profile : [email protected]
Format settings : CABAC / 5 Ref Frames
Format settings, CABAC : Yes
Format settings, Reference frames : 5 frames
Codec ID : V_MPEG4/ISO/AVC
Duration : 1 h 35 min
Bit rate : 13.3 Mb/s
Width : 1 920 pixels
Height : 752 pixels
Display aspect ratio : 2.553
Frame rate mode : Constant
Frame rate : 23.976 (24000/1001/189150) FPS
Color space : YUV
Chroma subsampling : 4:2:0
Bit depth : 8 bits
Scan type : Progressive
Bits/(Pixel*Frame) : 0.384
Stream size : 8.64 GiB (88%)
Writing library : x264 core 157 r2932 303c484
Encoding settings : cabac=1 / ref=5 / deblock=1:-3:-3 / analyse=0x3:0x113 / me=umh / subme=8 / psy=1 / psy_rd=1.15:0.00 / mixed_ref=1 / me_range=32 / chroma_me=1 / trellis=2 / 8x8dct=1 / cqm=0 / deadzone=21,11 / fast_pskip=1 / chroma_qp_offset=-2 / threads=23 / lookahead_threads=3 / sliced_threads=0 / nr=0 / decimate=1 / interlaced=0 / bluray_compat=0 / constrained_intra=0 / bframes=3 / b_pyramid=2 / b_adapt=2 / b_bias=0 / direct=3 / weightb=1 / open_gop=0 / weightp=2 / keyint=240 / keyint_min=24 / scenecut=40 / intra_refresh=0 / rc_lookahead=50 / rc=2pass / mbtree=1 / bitrate=13302 / ratetol=1.0 / qcomp=0.60 / qpmin=0 / qpmax=69 / qpstep=4 / cplxblur=20.0 / qblur=0.5 / ip_ratio=1.40 / aq=3:0.75
Default : Yes
Forced : No
Statistics Tags Issue : no_variable_data 1970-01-01 00:00:00 / no_variable_data 2010-02-22 21:41:29
FromStats_BitRate : 13300797
FromStats_Duration : 01:35:05.533000000
FromStats_FrameCount : 136796
FromStats_StreamSize : 9486017398

Audio
ID : 2
Format : DTS
Format/Info : Digital Theater Systems
Codec ID : A_DTS
Duration : 1 h 35 min
Bit rate mode : Constant
Bit rate : 1 509 kb/s
Channel(s) : 6 channels
Channel layout : C L R Ls Rs LFE
Sampling rate : 48.0 kHz
Frame rate : 93.750 FPS (512 SPF)
Bit depth : 24 bits
Compression mode : Lossy
Stream size : 1.00 GiB (10%)
Language : English
Default : Yes
Forced : No
Statistics Tags Issue : no_variable_data 1970-01-01 00:00:00 / no_variable_data 2010-02-22 21:41:29
FromStats_BitRate : 1508999
FromStats_Duration : 01:35:05.526000000
FromStats_FrameCount : 534893
FromStats_StreamSize : 1076204716

Text #1
ID : 3
Format : UTF-8
Codec ID : S_TEXT/UTF8
Codec ID/Info : UTF-8 Plain Text
Language : English
Default : No
Forced : No
Statistics Tags Issue : no_variable_data 1970-01-01 00:00:00 / no_variable_data 2010-02-22 21:41:29
FromStats_BitRate : 93
FromStats_Duration : 01:34:25.409000000
FromStats_FrameCount : 1586
FromStats_StreamSize : 66150

Text #2
ID : 4
Format : UTF-8
Codec ID : S_TEXT/UTF8
Codec ID/Info : UTF-8 Plain Text
Title : SDH
Language : English
Default : No
Forced : No
Statistics Tags Issue : no_variable_data 1970-01-01 00:00:00 / no_variable_data 2010-02-22 21:41:29
FromStats_BitRate : 95
FromStats_Duration : 01:34:25.409000000
FromStats_FrameCount : 1621
FromStats_StreamSize : 67448

Menu
00:00:00.000 : en:00:00:00.000
00:04:51.750 : en:00:04:51.750
00:08:25.213 : en:00:08:25.213
00:12:44.639 : en:00:12:44.639
00:16:29.906 : en:00:16:29.906
00:20:18.217 : en:00:20:18.217
00:22:06.075 : en:00:22:06.075
00:27:53.088 : en:00:27:53.088
00:31:17.501 : en:00:31:17.501
00:37:56.399 : en:00:37:56.399
00:40:29.636 : en:00:40:29.636
00:43:30.316 : en:00:43:30.316
00:45:37.360 : en:00:45:37.360
00:51:29.712 : en:00:51:29.712
00:56:59.541 : en:00:56:59.541
00:59:58.720 : en:00:59:58.720
01:03:21.798 : en:01:03:21.798
01:07:09.150 : en:01:07:09.150
01:11:43.674 : en:01:11:43.674
01:15:19.598 : en:01:15:19.598
01:20:37.791 : en:01:20:37.791
01:24:22.808 : en:01:24:22.808
01:27:22.112 : en:01:27:22.112
01:31:02.415 : en:01:31:02.415






Black.Widow.1954.1080p.BluRay.x264-PSYCHD.zip
还没有人收藏过本帖~
最新回复 (0)
返回