如资源无法下载,请加群!

[2019][欧美][剧情][BD-1080P]布鲁克林秘案/布鲁克林孤儿 Motherless.Brooklyn.2019.1080p.BluRay.x264-SPARKS 10.95GB

幸运 1月前 1424

帖子完整标题:布鲁克林秘案/布鲁克林孤儿 Motherless.Brooklyn.2019.1080p.BluRay.x264-SPARKS 10.95GB




◎译  名 布鲁克林秘案 / 布鲁克林孤儿(台) / 布鲁克林的流浪儿 / 无母之城(港)
◎片  名 Motherless Brooklyn
◎年  代 2019
◎产  地 美国
◎类  别 剧情 / 犯罪
◎语  言 英语
◎上映日期 2019-08-30(特柳赖德电影节) / 2019-09-10(多伦多电影节) / 2019-11-01(美国)
◎IMDb评分 7.1/10 from 8784 users
◎IMDb链接 https://www.imdb.com/title/tt0385887
◎豆瓣评分 7.8/10 from 948 users
◎豆瓣链接 https://movie.douban.com/subject/1469353/
◎片  长 144分钟
◎导  演 爱德华·诺顿 Edward Norton
◎编  剧 爱德华·诺顿 Edward Norton / 乔纳森·勒瑟姆 Jonathan Lethem
◎主  演 布鲁斯·威利斯 Bruce Willis
      威廉·达福 Willem Dafoe
      爱德华·诺顿 Edward Norton
      古古·姆巴塔-劳 Gugu Mbatha-Raw
      亚历克·鲍德温 Alec Baldwin
      鲍比·坎纳瓦尔 Bobby Cannavale
      莱斯利·曼恩 Leslie Mann
      伊桑·苏普利 Ethan Suplee
      费舍·史蒂芬斯 Fisher Stevens
      达拉斯·罗伯特斯 Dallas Roberts
      迈克尔·肯尼斯·威廉姆斯 Michael Kenneth Williams
      切莉·琼斯 Cherry Jones
      乔什·帕斯 Josh Pais
      罗伯特·维斯多姆 Robert Wisdom
      斯蒂芬·阿德利·葛尔盖 Stephen Adly Guirgis
      桃乐丝·麦卡锡 Doris McCarthy
      拉杜·斯平格尔 Radu Spinghel
      黛博拉·安格 Deborah Unger
      奥利·哈斯基维 Olli Haaskivi
      列尼斯·德洛桑托斯 Leonys Delossantos
      布莱斯·科里根 Blaise Corrigan
      罗伯特·迈尔斯 Robert Myers
      凯蒂·戴维斯 Katy Davis
      埃里克·贝瑞曼 Eric Berryman
      埃兹拉·巴恩斯 Ezra Barnes
      尼尔森·艾维登 Nelson Avidon


◎标  签 美国 | 犯罪 | 剧情 | 悬疑 | 2019 | 惊悚 | 黑色幽默 | 人性

◎简  介

  故事围绕1950年代纽约私人侦探莱昂内尔·“布鲁克林”·埃斯罗格展开,面对唯一导师兼挚友弗兰克·明纳离奇遇害,身患抽动秽语综合征的孤儿莱昂内尔不得不上下求索,独自深入哈林爵士天地和布鲁克林穷街陋巷,竭力探寻这起谋杀背后的秘密和真相。
  影片由爱德华·诺顿执导、编剧、制片并主演,于1950年代纽约大转型背景下重新演绎乔纳森·利瑟姆同名小说《布鲁克林孤儿》中各色当代人物。

◎获奖情况

  第77届金球奖(2020)
  电影类 最佳原创配乐(提名) 丹尼尔·彭博顿

  第18届美国视觉效果协会奖(2020)
  最佳真人电影CG背景(提名)

  第24届金卫星奖(2020)
  电影部门 最佳改编剧本(提名) 爱德华·诺顿
  电影部门 最佳摄影(提名)
  电影部门 最佳美术指导

  第40届伦敦影评人协会奖(2020)
  技术成就奖(提名) 丹尼尔·彭博顿
Video
ID : 1
Format : AVC
Format/Info : Advanced Video Codec
Format profile : [email protected]
Format settings : CABAC / 4 Ref Frames
Format settings, CABAC : Yes
Format settings, Reference frames : 4 frames
Codec ID : V_MPEG4/ISO/AVC
Duration : 2 h 24 min
Bit rate : 9 333 kb/s
Width : 1 920 pixels
Height : 1 040 pixels
Display aspect ratio : 1.85:1
Frame rate mode : Constant
Frame rate : 23.976 (24000/1001) FPS
Color space : YUV
Chroma subsampling : 4:2:0
Bit depth : 8 bits
Scan type : Progressive
Bits/(Pixel*Frame) : 0.195
Stream size : 9.41 GiB (86%)
Writing library : x264 core 159 r2991 1771b55
Encoding settings : cabac=1 / ref=4 / deblock=1:-3:-3 / analyse=0x3:0x113 / me=umh / subme=8 / psy=1 / psy_rd=1.00:0.00 / mixed_ref=1 / me_range=16 / chroma_me=1 / trellis=1 / 8x8dct=1 / cqm=0 / deadzone=21,11 / fast_pskip=1 / chroma_qp_offset=-2 / threads=30 / lookahead_threads=5 / sliced_threads=0 / nr=0 / decimate=1 / interlaced=0 / bluray_compat=0 / constrained_intra=0 / bframes=3 / b_pyramid=2 / b_adapt=1 / b_bias=0 / direct=3 / weightb=1 / open_gop=0 / weightp=2 / keyint=250 / keyint_min=23 / scenecut=40 / intra_refresh=0 / rc_lookahead=50 / rc=2pass / mbtree=1 / bitrate=9333 / ratetol=1.0 / qcomp=0.60 / qpmin=0 / qpmax=69 / qpstep=4 / cplxblur=20.0 / qblur=0.5 / ip_ratio=1.40 / aq=1:1.00
Language : English
Default : Yes
Forced : No

Audio
ID : 2
Format : DTS
Format/Info : Digital Theater Systems
Codec ID : A_DTS
Duration : 2 h 24 min
Bit rate mode : Constant
Bit rate : 1 509 kb/s
Channel(s) : 6 channels
Channel layout : C L R Ls Rs LFE
Sampling rate : 48.0 kHz
Frame rate : 93.750 FPS (512 SPF)
Bit depth : 24 bits
Compression mode : Lossy
Stream size : 1.52 GiB (14%)
Language : English
Default : Yes
Forced : No

Menu
00:00:00.000 : en:00:00:00.000
00:09:57.847 : en:00:09:57.847
00:19:20.326 : en:00:19:20.326
00:29:14.586 : en:00:29:14.586
00:38:47.575 : en:00:38:47.575
00:46:33.958 : en:00:46:33.958
00:54:01.822 : en:00:54:01.822
01:02:12.604 : en:01:02:12.604
01:08:42.618 : en:01:08:42.618
01:17:48.205 : en:01:17:48.205
01:26:55.919 : en:01:26:55.919
01:34:07.350 : en:01:34:07.350
01:41:25.705 : en:01:41:25.705
01:50:29.289 : en:01:50:29.289
02:00:21.005 : en:02:00:21.005
02:07:02.824 : en:02:07:02.824
02:17:16.603 : en:02:17:16.603






Motherless.Brooklyn.2019.1080p.BluRay.x264-SPARKS.torrent
还没有人收藏过本帖~
最新回复 (5)
返回
发新帖
即将对游客闭站,请注册账号备用!
影音屋为您提供最新的720P、1080P、2K、4K、原盘高清电影下载,内部交流社区,欢迎体验。影音屋,更多好电影待您发现!
加入福利电报群 加入福利企鹅群 淘宝天猫漏洞单