如资源无法下载,请加群!

[2016][欧美][喜剧][WEB-1080P]利伯蒂的秘密 Libertys.Secret.2016.1080p.WEB-DL.DD5.1.H264-FGT 3.84GB

幸运 1月前 259

帖子完整标题:利伯蒂的秘密 Libertys.Secret.2016.1080p.WEB-DL.DD5.1.H264-FGT 3.84GB




◎译  名 利伯蒂的秘密
◎片  名 Liberty's Secret
◎年  代 2016
◎产  地 美国
◎类  别 喜剧 / 爱情 / 歌舞
◎语  言 英语
◎上映日期 2016-10-09(德国)
◎IMDb评分 4.9/10 from 335 users
◎IMDb链接 https://www.imdb.com/title/tt4396662
◎豆瓣评分 5.3/10 from 101 users
◎豆瓣链接 https://movie.douban.com/subject/26947308/
◎导  演 Andy Kirshner / Debbie Williams
◎编  剧 Andy Kirshner
◎主  演 Jaclene Wilk
      Cara AnnMarie
      Chris Lutkin


◎标  签 美国 | 同性 | les | 百合 | LGBT | 歌舞 | 2016 | 政治讽刺

◎简  介

  影片讲述了24岁的女孩Liberty Smith,作为宣扬“家庭价值观”的传教士的女儿,有着姣好的容颜和天使般的嗓音,一时引起全国性政治轰动。与此同时,她渐渐爱上了自己的政治公关导师Nikki Levine。
Video
ID : 1
Format : AVC
Format/Info : Advanced Video Codec
Format profile : [email protected]
Format settings : CABAC / 4 Ref Frames
Format settings, CABAC : Yes
Format settings, Reference frames : 4 frames
Codec ID : V_MPEG4/ISO/AVC
Duration : 1 h 38 min
Bit rate : 5 223 kb/s
Width : 1 916 pixels
Height : 1 076 pixels
Display aspect ratio : 16:9
Frame rate mode : Constant
Frame rate : 23.976 (24000/1001) FPS
Color space : YUV
Chroma subsampling : 4:2:0
Bit depth : 8 bits
Scan type : Progressive
Bits/(Pixel*Frame) : 0.106
Stream size : 3.58 GiB (93%)
Title : Libertys.Secret.2016.1080p.WEB-DL.DD5.1.H264-FGT
Language : English
Default : Yes
Forced : No
Color range : Limited
Color primaries : BT.709
Transfer characteristics : BT.709
Matrix coefficients : BT.709

Audio
ID : 2
Format : AC-3
Format/Info : Audio Coding 3
Commercial name : Dolby Digital
Codec ID : A_AC3
Duration : 1 h 38 min
Bit rate mode : Constant
Bit rate : 384 kb/s
Channel(s) : 6 channels
Channel layout : L R C LFE Ls Rs
Sampling rate : 48.0 kHz
Frame rate : 31.250 FPS (1536 SPF)
Bit depth : 16 bits
Compression mode : Lossy
Stream size : 270 MiB (7%)
Title : Libertys.Secret.2016.1080p.WEB-DL.DD5.1.H264-FGT
Language : English
Service kind : Complete Main
Default : Yes
Forced : No

Text
ID : 3
Format : UTF-8
Codec ID : S_TEXT/UTF8
Codec ID/Info : UTF-8 Plain Text
Duration : 1 h 38 min
Bit rate : 72 b/s
Count of elements : 1788
Stream size : 52.1 KiB (0%)
Language : English
Default : Yes
Forced : No

Menu
00:00:00.000 : en:Chapter 1
00:10:00.600 : en:Chapter 2
00:20:01.200 : en:Chapter 3
00:30:01.800 : en:Chapter 4
00:40:02.400 : en:Chapter 5
00:50:03.000 : en:Chapter 6
01:00:03.600 : en:Chapter 7
01:10:04.200 : en:Chapter 8
01:20:04.800 : en:Chapter 9
01:30:05.400 : en:Chapter 10






Libertys.Secret.2016.1080p.WEB-DL.DD5.1.H264-FGT.torrent
还没有人收藏过本帖~
最新回复 (0)
返回
发新帖
即将对游客闭站,请注册账号备用!
影音屋为您提供最新的720P、1080P、2K、4K、原盘高清电影下载,内部交流社区,欢迎体验。影音屋,更多好电影待您发现!
加入福利电报群 加入福利企鹅群 淘宝天猫漏洞单