如资源无法下载,请加群!

[2017][欧美][其他][WEB-1080P]怪兽在逃 Monsters.At.Large.2018.1080p.WEB-DL.DD5.1.H264-FGT 3.57GB

幸运 1月前 316

帖子完整标题:怪兽在逃 Monsters.At.Large.2018.1080p.WEB-DL.DD5.1.H264-FGT 3.57GB




◎译  名 怪兽在逃
◎片  名 Monsters at Large
◎年  代 2017
◎产  地 美国
◎类  别 家庭
◎语  言 英语
◎上映日期 2018-03-13(美国)
◎IMDb评分 5.4/10 from 236 users
◎IMDb链接 https://www.imdb.com/title/tt5145662
◎豆瓣评分 0/10 from 0 users
◎豆瓣链接 https://movie.douban.com/subject/26965672/
◎片  长 91分钟
◎导  演 Jason Murphy
◎编  剧 Anthony Steven Giordano
◎主  演 Mischa Barton
      Stephen Tobolowsky
      Austin St. John


◎标  签 科幻 | 剧情 | 2018

◎简  介

  暂无相关剧情介绍
Video
ID : 1
Format : AVC
Format/Info : Advanced Video Codec
Format profile : [email protected]
Format settings : CABAC / 4 Ref Frames
Format settings, CABAC : Yes
Format settings, Reference frames : 4 frames
Codec ID : V_MPEG4/ISO/AVC
Duration : 1 h 31 min
Bit rate : 5 203 kb/s
Width : 1 912 pixels
Height : 1 072 pixels
Display aspect ratio : 16:9
Frame rate mode : Constant
Frame rate : 23.976 (24000/1001) FPS
Color space : YUV
Chroma subsampling : 4:2:0
Bit depth : 8 bits
Scan type : Progressive
Bits/(Pixel*Frame) : 0.106
Stream size : 3.32 GiB (93%)
Title : Monsters.At.Large.2018.1080p.WEB-DL.DD5.1.H264-FGT
Language : English
Default : Yes
Forced : No
Color range : Limited
Color primaries : BT.709
Transfer characteristics : BT.709
Matrix coefficients : BT.709

Audio
ID : 2
Format : AC-3
Format/Info : Audio Coding 3
Commercial name : Dolby Digital
Codec ID : A_AC3
Duration : 1 h 31 min
Bit rate mode : Constant
Bit rate : 384 kb/s
Channel(s) : 6 channels
Channel layout : L R C LFE Ls Rs
Sampling rate : 48.0 kHz
Frame rate : 31.250 FPS (1536 SPF)
Bit depth : 16 bits
Compression mode : Lossy
Stream size : 251 MiB (7%)
Title : Monsters.At.Large.2018.1080p.WEB-DL.DD5.1.H264-FGT
Language : English
Service kind : Complete Main
Default : Yes
Forced : No

Text
ID : 3
Format : UTF-8
Codec ID : S_TEXT/UTF8
Codec ID/Info : UTF-8 Plain Text
Duration : 1 h 28 min
Bit rate : 66 b/s
Count of elements : 1449
Stream size : 43.5 KiB (0%)
Language : English
Default : Yes
Forced : No

Menu
00:00:00.000 : en:1
00:05:43.000 : en:2
00:14:29.000 : en:3
00:22:41.000 : en:4
00:30:22.000 : en:5
00:38:20.000 : en:6
00:46:34.000 : en:7
00:54:41.000 : en:8
01:03:47.000 : en:9
01:11:06.000 : en:10
01:22:40.000 : en:11
01:29:27.000 : en:12






Monsters.At.Large.2018.1080p.WEB-DL.DD5.1.H264-FGT.torrent
还没有人收藏过本帖~
最新回复 (0)
返回
发新帖
即将对游客闭站,请注册账号备用!
影音屋为您提供最新的720P、1080P、2K、4K、原盘高清电影下载,内部交流社区,欢迎体验。影音屋,更多好电影待您发现!
加入福利电报群 加入福利企鹅群 淘宝天猫漏洞单