如资源无法下载,请加群!

[2016][欧美][剧情][WEB-1080P]一夜/相爱之夜 One.Night.2016.1080p.WEB-DL.DD5.1.H264-FGT 2.64GB

幸运 1月前 344

帖子完整标题:一夜/相爱之夜 One.Night.2016.1080p.WEB-DL.DD5.1.H264-FGT 2.64GB




◎译  名 一夜 / 相爱之夜
◎片  名 One Night
◎年  代 2016
◎产  地 美国
◎类  别 剧情 / 爱情
◎语  言 英语
◎上映日期 2016-10-14(奥斯汀电影节) / 2017-02-10(美国)
◎IMDb评分 5.8/10 from 1769 users
◎IMDb链接 https://www.imdb.com/title/tt4126694
◎豆瓣评分 6.2/10 from 240 users
◎豆瓣链接 https://movie.douban.com/subject/26630633/
◎片  长 80分钟
◎导  演 Minhal Baig
◎编  剧 Minhal Baig
◎主  演 安娜·坎普 Anna Camp
      贾斯汀·查特文 Justin Chatwin
      伊莎贝拉·弗尔曼 Isabelle Fuhrman
      凯尔·艾伦 Kyle Allen
      凯莉·伯格伦德 Kelli Berglund
      Roshon Fegan
      埃文·霍夫 Evan Hofer
      亚历山大·罗伯茨 Alexander Roberts


◎标  签 爱情 | 美国 | 文艺 | 2016 | 剧情 | 美国电影 | 相信爱情 | 电影

◎简  介

  《一夜》是一部由Minhal Baig执导,安娜·坎普和贾斯汀·查特文等人主演的美国爱情电影,此片于2016年上映。
  电影主要讲述了两对情侣在一个旅馆的一夜中探究了自己的爱情,过去和现实交织在了一起。
Video
ID : 1
Format : AVC
Format/Info : Advanced Video Codec
Format profile : [email protected]
Format settings : CABAC / 5 Ref Frames
Format settings, CABAC : Yes
Format settings, Reference frames : 5 frames
Codec ID : V_MPEG4/ISO/AVC
Duration : 1 h 15 min
Bit rate : 4 524 kb/s
Width : 1 912 pixels
Height : 852 pixels
Display aspect ratio : 2.25:1
Frame rate mode : Constant
Frame rate : 23.976 FPS
Color space : YUV
Chroma subsampling : 4:2:0
Bit depth : 8 bits
Scan type : Progressive
Bits/(Pixel*Frame) : 0.116
Stream size : 2.38 GiB (90%)
Title : One.Night.2016.1080p.WEB-DL.DD5.1.H264-FGT
Language : English
Default : Yes
Forced : No
Color range : Limited
Color primaries : BT.709
Transfer characteristics : BT.709
Matrix coefficients : BT.709

Audio
ID : 2
Format : AC-3
Format/Info : Audio Coding 3
Commercial name : Dolby Digital
Codec ID : A_AC3
Duration : 1 h 15 min
Bit rate mode : Constant
Bit rate : 384 kb/s
Channel(s) : 6 channels
Channel layout : L R C LFE Ls Rs
Sampling rate : 48.0 kHz
Frame rate : 31.250 FPS (1536 SPF)
Bit depth : 16 bits
Compression mode : Lossy
Stream size : 207 MiB (8%)
Title : One.Night.2016.1080p.WEB-DL.DD5.1.H264-FGT
Language : English
Service kind : Complete Main
Default : Yes
Forced : No

Text
ID : 3
Format : UTF-8
Codec ID : S_TEXT/UTF8
Codec ID/Info : UTF-8 Plain Text
Language : English
Default : Yes
Forced : No

Menu
00:00:00.000 : en:Chapter 1
00:23:42.000 : en:Chapter 2
00:48:24.000 : en:Chapter 3
01:11:00.000 : en:Chapter 4






One.Night.2016.1080p.WEB-DL.DD5.1.H264-FGT.torrent
还没有人收藏过本帖~
最新回复 (0)
返回
发新帖
即将对游客闭站,请注册账号备用!
影音屋为您提供最新的720P、1080P、2K、4K、原盘高清电影下载,内部交流社区,欢迎体验。影音屋,更多好电影待您发现!
加入福利电报群 加入福利企鹅群 淘宝天猫漏洞单