如资源无法下载,请加群!

[2015][其他][动作][WEB-1080P]止痛回忆 Painkillers.2015.1080p.WEB-DL.DD5.1.H.264-RARBG 3.87GB

幸运 1月前 172

帖子完整标题:止痛回忆 Painkillers.2015.1080p.WEB-DL.DD5.1.H.264-RARBG 3.87GB




◎译  名 止痛回忆 / Tour of Duty / 服役期
◎片  名 Painkillers
◎年  代 2015
◎产  地 加拿大
◎类  别 动作 / 科幻 / 惊悚
◎语  言 英语
◎上映日期 2015-11-15(美国)
◎IMDb评分 4.1/10 from 573 users
◎IMDb链接 https://www.imdb.com/title/tt3171176
◎豆瓣评分 0/10 from 0 users
◎豆瓣链接 https://movie.douban.com/subject/26215206/
◎片  长 102分钟
◎导  演 Peter Winther
◎编  剧 Jason Groce / Kirk Roos / Peter Winther
◎主  演 埃莉卡·杜兰斯 Erica Durance
      塔莫·潘尼凯 Tahmoh Penikett
      朱莉娅·沃斯 Julia Voth
      莱斯丽-安·布莱德 Lesley-Ann Brandt
      科鲁姆·费奥瑞 Colm Feore


◎简  介

  约翰·卡弗蒂为首的美国士兵深入阿富汗的山区实行计划,完成一项神秘的绝密计划。结果他们回家住进了军事医院,因为他们不记得在阿富汗发生了什么,以及他们是谁。随着时间的推移,他们开始回忆起奇怪的事件,并伴有灵异事件发生。从一个神秘电源发出了一股吸引他们死亡和阅读的强大的电磁能量。但是他们没有时间逗留在过去,他们需要面对痛苦的真相。在阿富汗的痛苦经历,摧毁了他们的思想并几乎毁了他们全部的生活。
Video
ID : 1
Format : AVC
Format/Info : Advanced Video Codec
Format profile : [email protected]
Format settings : CABAC / 4 Ref Frames
Format settings, CABAC : Yes
Format settings, Reference frames : 4 frames
Codec ID : V_MPEG4/ISO/AVC
Duration : 1 h 44 min
Bit rate : 4 800 kb/s
Width : 1 912 pixels
Height : 1 028 pixels
Display aspect ratio : 1.85:1
Frame rate mode : Constant
Frame rate : 23.976 FPS
Color space : YUV
Chroma subsampling : 4:2:0
Bit depth : 8 bits
Scan type : Progressive
Bits/(Pixel*Frame) : 0.102
Stream size : 3.51 GiB (91%)
Title : Painkillers.2015.1080p.WEB-DL.DD5.1.H.264-RARBG
Language : English
Default : Yes
Forced : No
Color range : Limited
Color primaries : BT.709
Transfer characteristics : BT.709
Matrix coefficients : BT.709

Audio
ID : 2
Format : AC-3
Format/Info : Audio Coding 3
Commercial name : Dolby Digital
Codec ID : A_AC3
Duration : 1 h 44 min
Bit rate mode : Constant
Bit rate : 384 kb/s
Channel(s) : 6 channels
Channel layout : L R C LFE Ls Rs
Sampling rate : 48.0 kHz
Frame rate : 31.250 FPS (1536 SPF)
Bit depth : 16 bits
Compression mode : Lossy
Stream size : 288 MiB (7%)
Title : Painkillers.2015.1080p.WEB-DL.DD5.1.H.264-RARBG
Language : English
Service kind : Complete Main
Default : Yes
Forced : No

Text
ID : 3
Format : UTF-8
Codec ID : S_TEXT/UTF8
Codec ID/Info : UTF-8 Plain Text
Title : English
Language : English
Default : No
Forced : No






Painkillers.2015.1080p.WEB-DL.DD5.1.H.264-RARBG.torrent
还没有人收藏过本帖~
最新回复 (0)
返回
发新帖
即将对游客闭站,请注册账号备用!
影音屋为您提供最新的720P、1080P、2K、4K、原盘高清电影下载,内部交流社区,欢迎体验。影音屋,更多好电影待您发现!
加入福利电报群 加入福利企鹅群 淘宝天猫漏洞单