如资源无法下载,请加群!

[2019][欧美][WEB-1080P]婉妲·赛克丝:做自己 Wanda.Sykes.Ima.Be.Me.2009.1080p.AMZN.WEBRip.DD2.0.x264-Cinefeel 9.20

幸运 1月前 208

帖子完整标题:婉妲·赛克丝:做自己 Wanda.Sykes.Ima.Be.Me.2009.1080p.AMZN.WEBRip.DD2.0.x264-Cinefeel 9.20GB




◎译  名 婉妲·赛克丝:做自己
◎片  名 Wanda Sykes: I'ma Be Me
◎产  地 美国
◎语  言 英语
◎上映日期 2009
◎IMDb评分 7.7/10 from 469 users
◎IMDb链接 https://www.imdb.com/title/tt1511514
◎豆瓣评分 8.8/10 from 125 users
◎豆瓣链接 https://movie.douban.com/subject/4277388/
◎导  演 Beth McCarthy-Miller
◎编  剧 Wanda Sykes
◎主  演 Wanda Sykes


◎标  签 美国 | 喜剧 | Stand-Up | 脱口秀 | WandaSykes | 单口 | stand-up | HBO

◎简  介

  暂无相关剧情介绍
Video
ID : 1
Format : AVC
Format/Info : Advanced Video Codec
Format profile : [email protected]
Format settings : CABAC / 4 Ref Frames
Format settings, CABAC : Yes
Format settings, Reference frames : 4 frames
Codec ID : V_MPEG4/ISO/AVC
Duration : 1 h 26 min
Bit rate mode : Variable
Bit rate : 15.0 Mb/s
Width : 1 920 pixels
Height : 1 080 pixels
Display aspect ratio : 16:9
Frame rate mode : Constant
Frame rate : 29.970 (30000/1001) FPS
Color space : YUV
Chroma subsampling : 4:2:0
Bit depth : 8 bits
Scan type : Progressive
Bits/(Pixel*Frame) : 0.241
Stream size : 9.06 GiB (99%)
Writing library : x264 core 148 r2623 d5b2374
Encoding settings : cabac=1 / ref=4 / deblock=1:-1:-1 / analyse=0x3:0x133 / me=umh / subme=9 / psy=1 / psy_rd=1.00:0.15 / mixed_ref=1 / me_range=24 / chroma_me=1 / trellis=2 / 8x8dct=1 / cqm=0 / deadzone=21,11 / fast_pskip=1 / chroma_qp_offset=-3 / threads=34 / lookahead_threads=5 / sliced_threads=0 / nr=150 / decimate=1 / interlaced=0 / bluray_compat=0 / constrained_intra=0 / bframes=8 / b_pyramid=2 / b_adapt=2 / b_bias=0 / direct=3 / weightb=1 / open_gop=0 / weightp=2 / keyint=150 / keyint_min=76 / scenecut=0 / intra_refresh=0 / rc_lookahead=150 / rc=crf / mbtree=1 / crf=18.0 / qcomp=0.60 / qpmin=0 / qpmax=69 / qpstep=4 / vbv_maxrate=15000 / vbv_bufsize=31250 / crf_max=0.0 / nal_hrd=vbr / filler=0 / ip_ratio=1.40 / aq=3:1.00
Default : Yes
Forced : No
Color range : Limited
Color primaries : BT.709
Transfer characteristics : BT.709
Matrix coefficients : BT.709

Audio
ID : 2
Format : E-AC-3
Format/Info : Enhanced AC-3
Commercial name : Dolby Digital Plus
Codec ID : A_EAC3
Duration : 1 h 26 min
Bit rate mode : Constant
Bit rate : 224 kb/s
Channel(s) : 2 channels
Channel layout : L R
Sampling rate : 48.0 kHz
Frame rate : 31.250 FPS (1536 SPF)
Compression mode : Lossy
Stream size : 139 MiB (1%)
Language : English
Service kind : Complete Main
Default : Yes
Forced : No

Text #1
ID : 3
Format : UTF-8
Codec ID : S_TEXT/UTF8
Codec ID/Info : UTF-8 Plain Text
Duration : 1 h 26 min
Bit rate : 76 b/s
Count of elements : 1396
Stream size : 48.6 KiB (0%)
Language : English
Default : No
Forced : No

Text #2
ID : 4
Format : UTF-8
Codec ID : S_TEXT/UTF8
Codec ID/Info : UTF-8 Plain Text
Duration : 1 h 26 min
Bit rate : 78 b/s
Count of elements : 1438
Stream size : 49.9 KiB (0%)
Title : SDH
Language : English
Default : No
Forced : No

Menu
00:00:00.000 : en:Studio Logo
00:00:06.000 : en:Wanda on President Obama
00:22:10.000 : en:Wanda on health care
00:33:29.000 : en:Wanda on immigration
00:38:50.000 : en:Wanda on gay marriage
00:47:59.000 : en:Wanda on motherhood
01:00:11.000 : en:Wanda on getting older
01:25:51.000 : en:End Credits






Wanda.Sykes.Ima.Be.Me.2009.1080p.AMZN.WEBRip.DD2.0.x264-Cinefeel.torrent
还没有人收藏过本帖~
最新回复 (0)
返回
发新帖
即将对游客闭站,请注册账号备用!
影音屋为您提供最新的720P、1080P、2K、4K、原盘高清电影下载,内部交流社区,欢迎体验。影音屋,更多好电影待您发现!
加入福利电报群 加入福利企鹅群 淘宝天猫漏洞单