如资源无法下载,请加群!

[2017][其他][喜剧][WEB-1080P]艾莉丝是谁 Who.Is.Alice.2017.1080p.AMZN.WEBRip.DDP2.0.x264-QOQ 3.81GB

幸运 1月前 165

帖子完整标题:艾莉丝是谁 Who.Is.Alice.2017.1080p.AMZN.WEBRip.DDP2.0.x264-QOQ 3.81GB




◎译  名 艾莉丝是谁
◎片  名 Who Is Alice
◎年  代 2017
◎产  地 Netherlands
◎类  别 喜剧
◎语  言 英语
◎上映日期 2017-09-07(Netherlands)
◎IMDb评分 6.0/10 from 789 users
◎IMDb链接 https://www.imdb.com/title/tt5371408
◎豆瓣评分 0/10 from 0 users
◎豆瓣链接 https://movie.douban.com/subject/27109455/
◎片  长 104分钟
◎导  演 Ismael Lotz / Robert van den Broek
◎编  剧 Paul Smit
◎主  演 Keith Ackerman
      Ali Bastian
      Maurizio Benazzo
      Lee Brace
      Elkie Deadman
      David Fahm


◎标  签 荷兰 | 2017 | 荷兰电影 | 剧情 | 英国 | 欧洲英语片 | 女性 | 喜剧

◎简  介

  'Who is Alice' carries us on a darkly funny, compelling and sometimes cringe worthy journey into the highs and lows of what human beings will do to try to avoid pain and connect to happiness. Alice is a 35 year old actress desperately hanging on to her 'new young thing' career. She is willing to sacrifice almost everything in order to reach the top and this mind-bending story takes us down the rabbit hole with her. Alice meets Dick, a car salesman who is disillusioned with life and dreaming about becoming a spiritual teacher. Together with a renegade cast of misfit characters they hilariously and awkwardly tie themselves in knots as they find their 'way'. And where does that 'way' lead them? ... To exactly where they are supposed to be. 'Who is Alice' uses humor guided by the a little non-dual thinking to help us look at ourselves and life in a different way. If the insight strikes, your whole perspective can change, while 'in reality' nothing has to change. Written by Paul Smit
Video
ID : 1
Format : AVC
Format/Info : Advanced Video Codec
Format profile : [email protected]
Format settings : CABAC / 4 Ref Frames
Format settings, CABAC : Yes
Format settings, Reference frames : 4 frames
Codec ID : V_MPEG4/ISO/AVC
Duration : 1 h 41 min
Bit rate mode : Variable
Bit rate : 5 141 kb/s
Maximum bit rate : 15.0 Mb/s
Width : 1 920 pixels
Height : 1 080 pixels
Display aspect ratio : 16:9
Frame rate mode : Constant
Frame rate : 25.000 FPS
Color space : YUV
Chroma subsampling : 4:2:0
Bit depth : 8 bits
Scan type : Progressive
Bits/(Pixel*Frame) : 0.099
Stream size : 3.65 GiB (96%)
Default : Yes
Forced : No
Color range : Limited
Color primaries : BT.709
Transfer characteristics : BT.709
Matrix coefficients : BT.709

Audio
ID : 2
Format : E-AC-3
Format/Info : Enhanced AC-3
Commercial name : Dolby Digital Plus
Codec ID : A_EAC3
Duration : 1 h 41 min
Bit rate mode : Constant
Bit rate : 224 kb/s
Channel(s) : 2 channels
Channel layout : L R
Sampling rate : 48.0 kHz
Frame rate : 31.250 FPS (1536 SPF)
Compression mode : Lossy
Stream size : 163 MiB (4%)
Language : English
Service kind : Complete Main
Default : Yes
Forced : No

Text
ID : 3
Format : UTF-8
Codec ID : S_TEXT/UTF8
Codec ID/Info : UTF-8 Plain Text
Duration : 1 h 40 min
Bit rate : 62 b/s
Count of elements : 1782
Stream size : 45.5 KiB (0%)
Language : English
Default : No
Forced : No






Who.Is.Alice.2017.1080p.AMZN.WEBRip.DDP2.0.x264-QOQ.torrent
还没有人收藏过本帖~
最新回复 (0)
返回
发新帖
即将对游客闭站,请注册账号备用!
影音屋为您提供最新的720P、1080P、2K、4K、原盘高清电影下载,内部交流社区,欢迎体验。影音屋,更多好电影待您发现!
加入福利电报群 加入福利企鹅群 淘宝天猫漏洞单