如资源无法下载,请加群!

[2019][欧美][其他][BD-1080P]一只叫钱的狗 A.Dog.Called.Money.2019.1080p.BluRay.x264-CADAVER 6.56GB

幸运 1月前 222

帖子完整标题:一只叫钱的狗 A.Dog.Called.Money.2019.1080p.BluRay.x264-CADAVER 6.56GB




◎译  名 一只叫钱的狗
◎片  名 A Dog Called Money
◎年  代 2019
◎产  地 英国
◎类  别 纪录片
◎语  言 英语
◎上映日期 2019-02-09(柏林国际电影节)
◎IMDb评分 6.8/10 from 236 users
◎IMDb链接 https://www.imdb.com/title/tt8299778
◎豆瓣评分 6.9/10 from 154 users
◎豆瓣链接 https://movie.douban.com/subject/30421736/
◎片  长 90分钟
◎导  演 Seamus Murphy
◎编  剧 Seamus Murphy
◎主  演 PJ Harvey


◎标  签 纪录片 | 音乐 | 英国 | 2019 | SIFF | 英国电影 | 艺术的内涵 | 紀錄片

◎简  介

  讲述了PJ哈维一张唱片的创作历程。作家兼音乐家哈维和屡获殊荣的摄影师谢默斯·墨菲达成合作。哈维想要在她的作品中写到几个国家,为了亲身体验这些国家的生活,她几次和墨菲一起踏上他的全球报导之旅。他们一起去了阿富汗、科索沃和华盛顿。哈维负责记录文字,墨菲负责拍摄照片。回去后,他们一起将资料制作成诗篇、歌曲,并在伦敦的萨默塞特宫以前所未有的形式将这些资料录制成一张专辑。在一个由单向玻璃建成的房子内,公众可以在保证不拍照的前提下观看这个长达五周的录制过程。墨菲将这个实验拍摄下来,作为他们私人旅行笔记的一部分。该片以他们在旅途过程中捕捉到的人和地点的影响为素材,以人性的体现为核心,讲述了这些素材变为歌曲和影片的过程。
Video
ID : 1
Format : AVC
Format/Info : Advanced Video Codec
Format profile : [email protected]
Format settings : CABAC / 4 Ref Frames
Format settings, CABAC : Yes
Format settings, Reference frames : 4 frames
Codec ID : V_MPEG4/ISO/AVC
Duration : 1 h 30 min
Bit rate : 8 910 kb/s
Width : 1 920 pixels
Height : 1 080 pixels
Display aspect ratio : 16:9
Frame rate mode : Constant
Frame rate : 25.000 FPS
Color space : YUV
Chroma subsampling : 4:2:0
Bit depth : 8 bits
Scan type : Progressive
Bits/(Pixel*Frame) : 0.172
Stream size : 5.61 GiB (85%)
Writing library : x264 core 158 r2988 7817004
Encoding settings : cabac=1 / ref=4 / deblock=1:-3:-3 / analyse=0x3:0x133 / me=umh / subme=9 / psy=1 / psy_rd=1.00:0.00 / mixed_ref=1 / me_range=24 / chroma_me=1 / trellis=1 / 8x8dct=1 / cqm=0 / deadzone=21,11 / fast_pskip=0 / chroma_qp_offset=-2 / threads=24 / lookahead_threads=4 / sliced_threads=0 / nr=0 / decimate=1 / interlaced=0 / bluray_compat=0 / constrained_intra=0 / bframes=8 / b_pyramid=2 / b_adapt=2 / b_bias=0 / direct=3 / weightb=1 / open_gop=0 / weightp=2 / keyint=250 / keyint_min=25 / scenecut=40 / intra_refresh=0 / rc_lookahead=60 / rc=2pass / mbtree=1 / bitrate=8910 / ratetol=1.0 / qcomp=0.60 / qpmin=0 / qpmax=69 / qpstep=4 / cplxblur=20.0 / qblur=0.5 / vbv_maxrate=62500 / vbv_bufsize=78125 / nal_hrd=none / filler=0 / ip_ratio=1.40 / aq=1:1.00
Default : Yes
Forced : No

Audio
ID : 2
Format : DTS
Format/Info : Digital Theater Systems
Codec ID : A_DTS
Duration : 1 h 30 min
Bit rate mode : Constant
Bit rate : 1 509 kb/s
Channel(s) : 6 channels
Channel layout : C L R Ls Rs LFE
Sampling rate : 48.0 kHz
Frame rate : 93.750 FPS (512 SPF)
Bit depth : 24 bits
Compression mode : Lossy
Stream size : 972 MiB (14%)
Language : English
Default : Yes
Forced : No

Menu
00:00:00.000 : en:Chapter 01
00:09:01.840 : en:Chapter 02
00:17:30.040 : en:Chapter 03
00:29:55.280 : en:Chapter 04
00:39:53.400 : en:Chapter 05
00:50:11.120 : en:Chapter 06
01:00:19.280 : en:Chapter 07
01:09:06.080 : en:Chapter 08
01:19:48.800 : en:Chapter 09
01:27:31.960 : en:Chapter 10






A.Dog.Called.Money.2019.1080p.BluRay.x264-CADAVER.torrent
还没有人收藏过本帖~
最新回复 (0)
返回
发新帖
即将对游客闭站,请注册账号备用!
影音屋为您提供最新的720P、1080P、2K、4K、原盘高清电影下载,内部交流社区,欢迎体验。影音屋,更多好电影待您发现!
加入福利电报群 加入福利企鹅群 淘宝天猫漏洞单