如资源无法下载,请在「交流」反馈!

[更早][欧美][科幻][纯净版][度盘/BT][深渊 /无底洞 /深海水怪][加长版][HDTV-MP4/ 3.54GB][英语双字][1080p][H265][10bit]

幸运 8月前 637

导演詹姆斯·卡梅隆
编剧詹姆斯·卡梅隆
主演艾德·哈里斯 / 玛丽·伊丽莎白·马斯特兰托尼奥 / 迈克尔·比恩 / 里奥·伯梅斯特 / 托德·格拉夫 / 更多...
类型: 剧情 / 科幻 / 惊悚 / 冒险
制片国家/地区: 美国
语言: 英语
上映日期: 1989-08-09(美国)
片长: 138 分钟 / USA: 171 分钟(special edition)
又名: 无底洞 / 深海水怪
IMDb链接: tt0096754

IMDB评分:7.6

豆瓣评分:8.0

深渊的剧情简介 · · · · · ·

  美国核潜艇蒙坦娜号在深海追踪一个不明物体的时候不幸失踪,高压潜水钻台深海之心号工头巴德(艾德·哈里斯 Ed Harris 饰)接到命令负责配合科菲中尉(迈克尔·比恩 Michael Biehn 饰)前去营救。令人意想不想不到的是一同前往的还有跟巴德一直在闹别扭的妻子—— 石油公司工程师琳西(玛丽·伊丽莎白·马斯特兰托尼奥 Mary Elizabeth Mastrantonio)。三人为主的救援队潜到潜艇失踪的海底深渊边缘,却发现潜艇上无人幸存,令人恐慌的是深渊里还存在着一种未知的怪物。经过一系列的危机之后,科菲中尉不听劝阻认定这是苏联的阴谋,决定把从潜艇上拆下来的核弹发射给不明的敌人,于是巴德和琳西联手开始了殊死搏斗。千钧一发之际巴德不顾危险救下了琳西,并且潜下深渊去拆掉核弹头上的引信,完成任务之后巴德的氧气已经消耗殆尽,而就在此刻深海的怪物再次出现。

General

Complete name               : C:\Users\Administrator\Desktop\The.Abyss.1989.EXTENDED.HDTV.1080p.x265.10bit.HEVC.ACC.5.1.英语双字-AWKN.mp4

Format                      : MPEG-4

Format profile              : Base Media

Codec ID                    : iso4 (iso4/hvc1/iso6)

File size                   : 3.54 GiB

Duration                    : 2 h 43 min

Overall bit rate mode       : Variable

Overall bit rate            : 3 094 kb/s

Encoded date                : UTC 2019-12-09 03:48:01

Tagged date                 : UTC 2019-12-09 03:48:01


Video

ID                          : 1

Format                      : HEVC

Format/Info                 : High Efficiency Video Coding

Format profile              : Main [email protected]@Main

Codec ID                    : hvc1

Codec ID/Info               : High Efficiency Video Coding

Duration                    : 2 h 43 min

Bit rate                    : 2 900 kb/s

Maximum bit rate            : 12.6 Mb/s

Width                       : 1 920 pixels

Height                      : 1 080 pixels

Display aspect ratio        : 16:9

Frame rate mode             : Constant

Frame rate                  : 50.000 FPS

Color space                 : YUV

Chroma subsampling          : 4:2:0

Bit depth                   : 10 bits

Bits/(Pixel*Frame)          : 0.028

Stream size                 : 3.32 GiB (94%)

Writing library             : x265 2.9169e76b6bbcc:[Windows][GCC 8.2.0][64 bit] 10bit

Encoding settings           : cpuid=1049583 / frame-threads=4 / numa-pools=20 / wpp / no-pmode / no-pme / no-psnr / no-ssim / log-level=2 / input-csp=1 / input-res=1920x1080 / interlace=0 / total-frames=491458 / level-idc=0 / high-tier=1 / uhd-bd=0 / ref=4 / no-allow-non-conformance / no-repeat-headers / annexb / no-aud / no-hrd / info / hash=0 / no-temporal-layers / open-gop / min-keyint=25 / keyint=250 / gop-lookahead=0 / bframes=4 / b-adapt=2 / b-pyramid / bframe-bias=0 / rc-lookahead=25 / lookahead-slices=4 / scenecut=40 / radl=0 / no-intra-refresh / ctu=64 / min-cu-size=8 / rect / no-amp / max-tu-size=32 / tu-inter-depth=1 / tu-intra-depth=1 / limit-tu=0 / rdoq-level=2 / dynamic-rd=0.00 / no-ssim-rd / signhide / no-tskip / nr-intra=0 / nr-inter=0 / no-constrained-intra / strong-intra-smoothing / max-merge=3 / limit-refs=3 / limit-modes / me=3 / subme=3 / merange=57 / temporal-mvp / weightp / no-weightb / no-analyze-src-pics / deblock=0:0 / sao / no-sao-non-deblock / rd=4 / no-early-skip / rskip / no-fast-intra / no-tskip-fast / no-cu-lossless / no-b-intra / no-splitrd-skip / rdpenalty=0 / psy-rd=2.00 / psy-rdoq=1.00 / no-rd-refine / no-lossless / cbqpoffs=0 / crqpoffs=0 / rc=abr / bitrate=2900 / qcomp=0.60 / qpstep=4 / stats-write=0 / stats-read=2 / cplxblur=20.0 / qblur=0.5 / ipratio=1.40 / pbratio=1.30 / aq-mode=1 / aq-strength=1.00 / cutree / zone-count=0 / no-strict-cbr / qg-size=32 / no-rc-grain / qpmax=69 / qpmin=0 / no-const-vbv / sar=1 / overscan=0 / videoformat=5 / range=0 / colorprim=2 / transfer=2 / colormatrix=2 / chromaloc=0 / display-window=0 / max-cll=0,0 / min-luma=0 / max-luma=1023 / log2-max-poc-lsb=8 / vui-timing-info / vui-hrd-info / slices=1 / no-opt-qp-pps / no-opt-ref-list-length-pps / no-multi-pass-opt-rps / scenecut-bias=0.05 / no-opt-cu-delta-qp / no-aq-motion / no-hdr / no-hdr-opt / no-dhdr10-opt / no-idr-recovery-sei / analysis-reuse-level=5 / scale-factor=0 / refine-intra=0 / refine-inter=0 / refine-mv=0 / no-limit-sao / ctu-info=0 / no-lowpass-dct / refine-mv-type=0 / copy-pic=1 / max-ausize-factor=1.0 / no-dynamic-refine / no-single-sei

Encoded date                : UTC 2019-12-09 03:48:01

Tagged date                 : UTC 2019-12-09 03:48:56

Codec configuration box     : hvcC


Audio

ID                          : 2

Format                      : AAC LC

Format/Info                 : Advanced Audio Codec Low Complexity

Codec ID                    : mp4a-40-2

Duration                    : 2 h 43 min

Bit rate mode               : Variable

Bit rate                    : 188 kb/s

Maximum bit rate            : 205 kb/s

Channel(s)                  : 6 channels

Channel layout              : C L R Ls Rs LFE

Sampling rate               : 48.0 kHz

Frame rate                  : 46.875 FPS (1024 SPF)

Compression mode            : Lossy

Stream size                 : 220 MiB (6%)

Language                    : English

Encoded date                : UTC 2019-12-09 03:21:28

Tagged date                 : UTC 2019-12-09 03:48:56


这部片子没有蓝光片源,清晰度不是很好,只能将就着看了


https://pan.baidu.com/s/1RWrSMPtRdYTJrVfb4ARYPg 提取码:bcij






深渊.The.Abyss.1989.EXTENDED.HDTV.1080p.x265.10bit.HEVC.ACC.5.1.英语双字-AWKN.torrent
还没有人收藏过本帖~
最新回复 (0)
返回