如资源无法下载,请加群!

[2018][欧美][惊悚][BD-1080P]斯德哥尔摩/盜亦有路 Stockholm.2018.1080p.BluRay.x264-GUACAMOLE 6.55GB

幸运 7天前 150

帖子完整标题:斯德哥尔摩/盜亦有路 Stockholm.2018.1080p.BluRay.x264-GUACAMOLE 6.55GB




◎译  名 斯德哥尔摩 / 盜亦有路(港)
◎片  名 Stockholm
◎年  代 2018
◎产  地 美国
◎类  别 惊悚 / 犯罪
◎语  言 英语
◎上映日期 2018-04-19(翠贝卡电影节)
◎IMDb评分 7.1/10 from 693 users
◎IMDb链接 http://www.imdb.com/title/tt6474040
◎豆瓣评分 0/10 from 0 users
◎豆瓣链接 https://movie.douban.com/subject/26791648/
◎片  长 92分钟
◎导  演 罗伯特·布德里奥 Robert Budreau
◎编  剧 罗伯特·布德里奥 Robert Budreau
◎主  演 伊桑·霍克 Ethan Hawke
      劳米·拉佩斯 Noomi Rapace
      马克·斯特朗 Mark Strong
      克里斯托弗·赫耶达尔 Christopher Heyerdahl
      托尔比约恩·哈尔 Thorbj?rn Harr
      马克·兰道尔 Mark Rendall
      古斯塔夫·汉马斯顿 Gustaf Hammarsten
      伊恩·马休斯 Ian Matthews
      约翰·拉尔斯顿 John Ralston
      沙汀·罗尼 Shanti Roney
      Bea Santos
      Christopher Wagelin
      Vladimir Jon Cubrt
      Linzee Barclay
      Anders Yates


◎标  签 犯罪 | 美国 | 2018 | 剧情 | 伊桑·霍克 | EthanHawke | MarkStrong | 美国电影

◎简  介

  伊桑·霍克和努米·拉佩斯将出演惊悚新片《斯德哥尔摩》。这也是霍克继《生为蓝调》后,与导演罗伯特·布德里奥二度合作。影片讲述四名被劫持人质,反而对劫匪产生怜悯。不仅拒绝质控绑匪,甚至还为他们脱罪。这种被害者对犯罪者产生的感情依赖,心理学上也称之为“斯德哥尔摩综合症”。

Video
ID : 1
Format : AVC
Format/Info : Advanced Video Codec
Format profile : [email protected]
Format settings : CABAC / 5 Ref Frames
Format settings, CABAC : Yes
Format settings, Reference frames : 5 frames
Codec ID : V_MPEG4/ISO/AVC
Duration : 1 h 31 min
Bit rate : 8 693 kb/s
Width : 1 920 pixels
Height : 808 pixels
Display aspect ratio : 2.40:1
Frame rate mode : Constant
Frame rate : 23.976 (24000/1001) FPS
Color space : YUV
Chroma subsampling : 4:2:0
Bit depth : 8 bits
Scan type : Progressive
Bits/(Pixel*Frame) : 0.234
Stream size : 5.58 GiB (85%)
Writing library : x264 core 158 r2988 7817004
Encoding settings : cabac=1 / ref=5 / deblock=1:0:0 / analyse=0x3:0x113 / me=umh / subme=8 / psy=1 / psy_rd=1.00:0.00 / mixed_ref=1 / me_range=16 / chroma_me=1 / trellis=2 / 8x8dct=1 / cqm=0 / deadzone=21,11 / fast_pskip=0 / chroma_qp_offset=-2 / threads=12 / lookahead_threads=2 / sliced_threads=0 / nr=0 / decimate=1 / interlaced=0 / bluray_compat=0 / constrained_intra=0 / bframes=3 / b_pyramid=2 / b_adapt=1 / b_bias=0 / direct=1 / weightb=1 / open_gop=0 / weightp=2 / keyint=250 / keyint_min=23 / scenecut=40 / intra_refresh=0 / rc_lookahead=50 / rc=2pass / mbtree=1 / bitrate=8693 / ratetol=1.0 / qcomp=0.60 / qpmin=0 / qpmax=69 / qpstep=4 / cplxblur=20.0 / qblur=0.5 / ip_ratio=1.40 / aq=1:1.00
Default : Yes
Forced : No

Audio
ID : 2
Format : DTS
Format/Info : Digital Theater Systems
Codec ID : A_DTS
Duration : 1 h 31 min
Bit rate mode : Constant
Bit rate : 1 509 kb/s
Channel(s) : 6 channels
Channel layout : C L R Ls Rs LFE
Sampling rate : 48.0 kHz
Frame rate : 93.750 FPS (512 SPF)
Bit depth : 24 bits
Compression mode : Lossy
Stream size : 992 MiB (15%)
Language : English
Default : Yes
Forced : No

Menu
00:00:00.000 : en:00:00:00.000
00:10:13.238 : en:00:10:13.238
00:16:33.201 : en:00:16:33.201
00:21:47.431 : en:00:21:47.431
00:28:43.263 : en:00:28:43.263
00:36:24.724 : en:00:36:24.724
00:44:25.746 : en:00:44:25.746
00:50:54.843 : en:00:50:54.843
00:57:08.342 : en:00:57:08.342
01:06:30.778 : en:01:06:30.778
01:16:41.472 : en:01:16:41.472
01:27:00.173 : en:01:27:00.173






Stockholm.2018.1080p.BluRay.x264-GUACAMOLE.torrent
最新回复 (0)
返回
发新帖
即将对游客闭站,请注册账号备用!
影音屋为您提供最新的720P、1080P、2K、4K、原盘高清电影下载,内部交流社区,欢迎体验。影音屋,更多好电影待您发现!
加入福利电报群 加入福利企鹅群 淘宝天猫漏洞单