如资源无法下载,请加群!

[更 早][其他][恐怖][BD-1080P]泥人哥连出世记 The.Golem.1920.1080p.BluRay.x264-GHOULS 5.47GB

幸运 5天前 54

帖子完整标题:泥人哥连出世记 The.Golem.1920.1080p.BluRay.x264-GHOULS 5.47GB




◎译  名 泥人哥连出世记 / The Golem / The Golem: How He Came Into the World
◎片  名 Der Golem, wie er in die Welt kam
◎年  代 1920
◎产  地 德国
◎类  别 恐怖 / 奇幻
◎语  言 默片
◎上映日期 1920-10-29
◎IMDb评分 7.2/10 from 5963 users
◎IMDb链接 https://www.imdb.com/title/tt0011237
◎豆瓣评分 7.8/10 from 356 users
◎豆瓣链接 https://movie.douban.com/subject/1441474/
◎片  长 Germany: 85 分钟(20 fps)
◎导  演 卡尔·伯泽 Carl Boese / 保罗·威格纳 Paul Wegener
◎编  剧 亨利克·加仑 Henrik Galeen / 保罗·威格纳 Paul Wegener
◎主  演 Paul Wegener
      Albert Steinrück
      Lyda Salmonova


◎标  签 德国 | 表现主义 | 默片 | 德国电影 | 1920s | 哥特 | 1920 | 恐怖

◎简  介

  德国表现主义代表作品
  A
  公元4世纪的犹太教法典(Talmud)中提到过Rava造golem的事。Rava的全称叫Rabbi Abba ben Rav Hamma,他造了一个不会说话的“人”。他把这个“人”送到Rav Zera面前,由于它对问话没有反应,Zera就说:“你准是由我的某个同行造的。回归尘土吧。” (Sanhedrin 65b) 在宗教意义上,只有上帝造的人才是完整的人,才会说话,而Rava造的不是真正的人。按照犹太传统,当时那些拉比(Rabbis)和大贤(Sages)都能造人或者动物Golems,这并没有什么特别之处。
  B
  Golem的传说后来逐渐改变,十七世纪由布拉格的Rabbi Loew(Rabbi意犹太教的学者)创造了一个Golem来保护住在犹太区的犹太人免遭反犹主义的暴力侵扰。为避免麻烦,故事中的学者总是在Golem完成它的使命以后,再自觉地把它重新变回为无生命的泥土。一天,Rabbi忘记将Golem变回泥土,当城市所有人已经作礼拜去了,Golem发怒毁坏全城。这个故事架构一直到十九、二十世纪都还在文学著作里出现,最著名的是Gustav Meyrink的《Der Golem》,在一九一五年普遍被阅读,值得探究的是,这样的小说刚好出现在工业革命的时代。这反映了人们对于科技所带来伦理的挑战的惶恐。
  C
  1920年由Carl Boese和Paul Wegener执导的经典默片Der Golem, wie er in die Welt kam (The Golem: How He Came Into the World) 就是改编自Gustav Meyrink的小说。这部影片集中体现了德国表现主义艺术的特点,对Fritz Lang等导演产生过重大影响。其中精心设计了手提灯光、煤油灯光、火炬等一系列光源效果,用于表现人物的心理状态,营造影片的环境气氛。这种具有表现力地运用灯光效果的方法,最终发展为所有德国电影形式表现的一大特征,同时也为电影恐怖片的造型的表现手段提供了经验。
  D
  Golem的传说同样也是玛丽·雪莱的著名科幻小说《弗兰肯斯坦》的来源之一,不过不同的是:传说中的Golem笨拙、鲁莽,既不知道自己有多大的力量,也不知道自己有多笨或者有多无知;而在玛丽·雪莱笔下,维克多·弗兰肯斯坦所创造的怪物虽然莽撞,但却善于学习,极富人性,懂得痛苦、同情、怜悯、爱慕、悔恨等等人类的情感,甚至比年轻的弗兰肯斯坦本人还成熟些。十八世纪的启蒙运动由提倡理性主义发展到后期,理性开始压抑人的情感,理性主义变成一种冰冷僵硬的东西。于是在德国兴起了反对启蒙运动的浪漫主义运动,十九世纪前期,浪漫主义文学席卷欧美,玛丽·雪莱的《弗兰肯斯坦》就是在这个背景下诞生的。不过在通俗文学中反理性反科学的倾向总是显得有些矫枉过正,科学和科学家的形象被简单化、平面化,这种描绘“科学怪人”的方式在默片时代的德国表现主义电影中曾经十分兴盛,后来一直在好莱坞许多拙劣的科幻片(这种片子的一大特点就是不断拍摄越来越拙劣的续集)中继续。
  E当代科学哲学研究最热门的一个方向是科学知识社会学(SSK),研究方法是深入到科学具体研究过程中,细致考察经费筹集、论文发表等每一个环节,研究科学知识是如何建构起来的,强调社会因素在建构过程中的作用。SSK的代表人物柯林斯和平奇在1993年出版过一本普及性的小册子,名字就叫Golem,翻译成《勾勒姆:关于科学人们应知道些什么》。柯林斯坦诚地说,他这部书是想用“勾勒姆”解释“科学”,“我们试图证明它不是一个邪恶的造物,只是有点疯狂(或译成‘傻’)(it is not an evilcreature but it is a little daft)。不要责备勾勒姆科学的过失;是我们人类在犯错误。如果勾勒姆尽力做其自己的事情,它不应受到责备。但是我们不能奢望过多。勾勒姆尽管强有力,它却是我们的文化(art)或者我们的技艺(craft)的造物。”SSK常常被斥为带有反科学倾向,但可以看出,它与浪漫主义时期的反科学倾向完全不同。它所描绘的科学形象丰满,有血有肉,它所谓的“反科学”无非是要抹去那些被强加于科学的重重面纱,还科学一个真实的面目,绝非19世纪简单的拒斥、贬低科学。
Video
ID : 1
Format : AVC
Format/Info : Advanced Video Codec
Format profile : [email protected]
Format settings : CABAC / 5 Ref Frames
Format settings, CABAC : Yes
Format settings, Reference frames : 5 frames
Codec ID : V_MPEG4/ISO/AVC
Duration : 1 h 16 min
Bit rate : 9 089 kb/s
Width : 1 440 pixels
Height : 1 080 pixels
Display aspect ratio : 4:3
Frame rate mode : Constant
Frame rate : 19.980 (20000/1001) FPS
Color space : YUV
Chroma subsampling : 4:2:0
Bit depth : 8 bits
Scan type : Progressive
Bits/(Pixel*Frame) : 0.293
Stream size : 4.84 GiB (89%)
Writing library : x264 core 158 r2988 7817004
Encoding settings : cabac=1 / ref=5 / deblock=1:-3:-3 / analyse=0x3:0x133 / me=umh / subme=9 / psy=1 / psy_rd=1.00:0.00 / mixed_ref=1 / me_range=24 / chroma_me=1 / trellis=1 / 8x8dct=1 / cqm=0 / deadzone=21,11 / fast_pskip=0 / chroma_qp_offset=-2 / threads=24 / lookahead_threads=4 / sliced_threads=0 / nr=0 / decimate=1 / interlaced=0 / bluray_compat=0 / constrained_intra=0 / bframes=8 / b_pyramid=2 / b_adapt=2 / b_bias=0 / direct=3 / weightb=1 / open_gop=0 / weightp=2 / keyint=250 / keyint_min=19 / scenecut=40 / intra_refresh=0 / rc_lookahead=60 / rc=2pass / mbtree=1 / bitrate=9089 / ratetol=1.0 / qcomp=0.60 / qpmin=0 / qpmax=69 / qpstep=4 / cplxblur=20.0 / qblur=0.5 / vbv_maxrate=62500 / vbv_bufsize=78125 / nal_hrd=none / filler=0 / ip_ratio=1.40 / aq=1:1.00
Default : Yes
Forced : No

Audio
ID : 2
Format : FLAC
Format/Info : Free Lossless Audio Codec
Codec ID : A_FLAC
Duration : 1 h 16 min
Bit rate mode : Variable
Bit rate : 1 176 kb/s
Channel(s) : 2 channels
Channel layout : L R
Sampling rate : 48.0 kHz
Frame rate : 10.417 FPS (4608 SPF)
Bit depth : 24 bits
Compression mode : Lossless
Stream size : 641 MiB (11%)
Writing library : Lavf58.29.100
Language : English
Default : Yes
Forced : No

Text
ID : 3
Format : UTF-8
Codec ID : S_TEXT/UTF8
Codec ID/Info : UTF-8 Plain Text
Duration : 1 h 15 min
Bit rate : 12 b/s
Count of elements : 166
Stream size : 6.81 KiB (0%)
Language : English
Default : Yes
Forced : No

Menu
00:00:00.000 : en:Chapter 01
00:08:19.040 : en:Chapter 02
00:19:05.519 : en:Chapter 03
00:28:51.521 : en:Chapter 04
00:40:34.015 : en:Chapter 05
00:51:01.809 : en:Chapter 06
01:00:15.070 : en:Chapter 07
01:10:18.464 : en:Chapter 08






The.Golem.1920.1080p.BluRay.x264-GHOULS.torrent
最新回复 (0)
返回