如资源无法下载,请加群!

[2018][其他][剧情][BD-1080P]外遇 An.Affair.2018.NORWEGIAN.1080p.BluRay.x264-HANDJOB 7.05GB

幸运 5天前 154

帖子完整标题:外遇 An.Affair.2018.NORWEGIAN.1080p.BluRay.x264-HANDJOB 7.05GB




◎译  名 外遇 / An Affair / 欲情狂爱(台)
◎片  名 En aff?re
◎年  代 2018
◎产  地 挪威
◎类  别 剧情 / 惊悚
◎语  言 挪威语 / 丹麦语
◎上映日期 2018-10-05(挪威)
◎IMDb评分 5.7/10 from 530 users
◎IMDb链接 https://www.imdb.com/title/tt7248144
◎豆瓣评分 5.6/10 from 1174 users
◎豆瓣链接 https://movie.douban.com/subject/27112845/
◎片  长 92分钟
◎导  演 亨里克·马丁·道斯贝肯 Henrik Martin Dahlsbakken
◎编  剧 亨里克·马丁·道斯贝肯 Henrik Martin Dahlsbakken
◎主  演 安德莉亚·巴伦·郝威格 Andrea Br?in Hovig
      塔利亚·桑德维克·莫尔 Tarjei Sandvik Moe
      安尼克·冯·德·利佩 Anneke von der Lippe
      卡斯腾·拜卓隆 Carsten Bj?rnlund
      阿格尼丝·基特尔森 Agnes Kittelsen
      英洁德·埃格伯格 Ingjerd Egeberg


◎标  签 挪威 | 情色 | 人性 | 剧情 | 2018 | 师生恋 | 伦理 | 惊悚

◎简  介

  塔利亚·桑德维克·莫尔[羞耻]、安德莉亚·巴伦·郝威格[我属于]加盟[洞窟]导演亨里克·马丁·道斯贝肯情色惊悚新作[外遇](An Affair,暂译)。18岁的塔利亚将化身学生,对片中44岁的女教师(安德莉亚·巴伦·郝威格 饰)疯狂迷恋,并发生迷离婚外情......
Video
ID : 1
Format : AVC
Format/Info : Advanced Video Codec
Format profile : [email protected]
Format settings : CABAC / 5 Ref Frames
Format settings, CABAC : Yes
Format settings, Reference frames : 5 frames
Codec ID : V_MPEG4/ISO/AVC
Duration : 1 h 32 min
Bit rate : 10.3 Mb/s
Width : 1 920 pixels
Height : 804 pixels
Display aspect ratio : 2.40:1
Frame rate mode : Constant
Frame rate : 24.000 FPS
Color space : YUV
Chroma subsampling : 4:2:0
Bit depth : 8 bits
Scan type : Progressive
Bits/(Pixel*Frame) : 0.279
Stream size : 6.64 GiB (94%)
Writing library : x264 core 157 r2935 545de2f
Encoding settings : cabac=1 / ref=5 / deblock=1:-3:-3 / analyse=0x3:0x133 / me=umh / subme=10 / psy=1 / psy_rd=1.00:0.00 / mixed_ref=1 / me_range=32 / chroma_me=1 / trellis=2 / 8x8dct=1 / cqm=0 / deadzone=21,11 / fast_pskip=0 / chroma_qp_offset=-2 / threads=12 / lookahead_threads=3 / sliced_threads=0 / nr=0 / decimate=0 / interlaced=0 / bluray_compat=0 / constrained_intra=0 / bframes=16 / b_pyramid=2 / b_adapt=2 / b_bias=0 / direct=3 / weightb=1 / open_gop=0 / weightp=2 / keyint=240 / keyint_min=24 / scenecut=40 / intra_refresh=0 / rc_lookahead=60 / rc=crf / mbtree=0 / crf=16.2 / qcomp=0.60 / qpmin=0 / qpmax=69 / qpstep=4 / vbv_maxrate=62500 / vbv_bufsize=78125 / crf_max=0.0 / nal_hrd=none / filler=0 / ip_ratio=1.40 / pb_ratio=1.30 / aq=2:1.00
Default : Yes
Forced : No
Color range : Limited
Color primaries : BT.709
Transfer characteristics : BT.709
Matrix coefficients : BT.709

Audio
ID : 2
Format : AC-3
Format/Info : Audio Coding 3
Commercial name : Dolby Digital
Codec ID : A_AC3
Duration : 1 h 32 min
Bit rate mode : Constant
Bit rate : 640 kb/s
Channel(s) : 6 channels
Channel layout : L R C LFE Ls Rs
Sampling rate : 48.0 kHz
Frame rate : 31.250 FPS (1536 SPF)
Bit depth : 16 bits
Compression mode : Lossy
Stream size : 421 MiB (6%)
Language : Norwegian
Service kind : Complete Main
Default : Yes
Forced : No

Text #1
ID : 3
Format : UTF-8
Codec ID : S_TEXT/UTF8
Codec ID/Info : UTF-8 Plain Text
Duration : 1 h 29 min
Bit rate : 33 b/s
Count of elements : 791
Stream size : 22.0 KiB (0%)
Title : English
Language : English
Default : Yes
Forced : No

Text #2
ID : 4
Format : UTF-8
Codec ID : S_TEXT/UTF8
Codec ID/Info : UTF-8 Plain Text
Duration : 1 h 27 min
Bit rate : 36 b/s
Count of elements : 745
Stream size : 23.3 KiB (0%)
Title : Espa?ol
Language : Spanish
Default : No
Forced : No

Text #3
ID : 5
Format : UTF-8
Codec ID : S_TEXT/UTF8
Codec ID/Info : UTF-8 Plain Text
Duration : 1 h 27 min
Bit rate : 40 b/s
Count of elements : 801
Stream size : 25.8 KiB (0%)
Title : Norsk
Language : Norwegian
Default : No
Forced : No

Text #4
ID : 6
Format : UTF-8
Codec ID : S_TEXT/UTF8
Codec ID/Info : UTF-8 Plain Text
Duration : 1 h 27 min
Bit rate : 35 b/s
Count of elements : 745
Stream size : 22.9 KiB (0%)
Title : Svenska
Language : Swedish
Default : No
Forced : No

Text #5
ID : 7
Format : UTF-8
Codec ID : S_TEXT/UTF8
Codec ID/Info : UTF-8 Plain Text
Duration : 1 h 26 min
Bit rate : 35 b/s
Count of elements : 703
Stream size : 22.3 KiB (0%)
Title : Dansk
Language : Danish
Default : No
Forced : No

Text #6
ID : 8
Format : UTF-8
Codec ID : S_TEXT/UTF8
Codec ID/Info : UTF-8 Plain Text
Duration : 1 h 27 min
Bit rate : 36 b/s
Count of elements : 687
Stream size : 23.4 KiB (0%)
Title : Suomi
Language : Finnish
Default : No
Forced : No

Menu
00:00:00.000 : :Chapter 01
00:11:13.208 : :Chapter 02
00:25:03.250 : :Chapter 03
00:33:39.750 : :Chapter 04
00:45:32.625 : :Chapter 05
00:59:16.917 : :Chapter 06
01:11:27.333 : :Chapter 07
01:22:52.333 : :Chapter 08






An.Affair.2018.NORWEGIAN.1080p.BluRay.x264-HANDJOB.torrent
最新回复 (1)
  • a3633550 4天前
    0 引用 2
    图又挂了哦
返回