如资源无法下载,请加群!

[更 早][日本][剧情][BD-1080P]哥斯拉 Godzilla.1954.Criterion.1080p.BluRay.x264-JRP 8.76GB

幸运 5天前 45

帖子完整标题:哥斯拉 Godzilla.1954.Criterion.1080p.BluRay.x264-JRP 8.76GB




◎译  名 哥斯拉 / Godzilla / Gojira / 原子恐龙 / 哥吉拉 / 哥吉拉的诞生(台) / 哥斯拉之诞生 / 大恐龙
◎片  名 ゴジラ
◎年  代 1954
◎产  地 日本
◎类  别 剧情 / 科幻 / 恐怖
◎语  言 日语
◎上映日期 1954-11-03
◎IMDb评分 7.6/10 from 26476 users
◎IMDb链接 https://www.imdb.com/title/tt0047034
◎豆瓣评分 7.5/10 from 2525 users
◎豆瓣链接 https://movie.douban.com/subject/2059276/
◎片  长 96 分钟
◎导  演 本多猪四郎 Ishir? Honda
◎编  剧 村田武雄 Takeo Murata / 本多猪四郎 Ishir? Honda
◎主  演 宝田明 Akira Takarada
      河内桃子
      平田昭彦 Akihiko Hirata
      志村乔 Takashi Shimura
      堺左千夫 Sachio Sakai


◎标  签 日本 | 科幻 | 灾难 | 日本电影 | 本多猪四郎 | 哥斯拉 | 1954 | 1950s

◎简  介

  二战结束后不久,日本南海惊现离奇事件,打捞船荣子丸在平静的海面上突然遇难,幸存者寥寥,前去搜救的宾果丸也一去不返。不久,南海附近的岛屿大户岛遭受到恐怖的袭击,岛上的老人声称这便是传说中的怪兽哥斯拉作怪。古生物专家山根京平教授受命前往调查,根据现场遗留的痕迹断定,这个怪物是200万年前侏罗纪时代存活下来的恐龙,并且在原子弹辐射的影响下,化身为更具破坏力的恐怖怪兽。该论断一经公布,便在日本国内引起轩然大波。政客和军队纷纷行动,意欲置哥斯拉于死地。而哥斯拉也闯入东京,进行一场毁灭性的破坏。人类的命运悬于一线……
  本片根据香山滋的科幻小说改编。
Video
ID : 1
Format : AVC
Format/Info : Advanced Video Codec
Format profile : [email protected]
Format settings : CABAC / 4 Ref Frames
Format settings, CABAC : Yes
Format settings, Reference frames : 4 frames
Codec ID : V_MPEG4/ISO/AVC
Duration : 1 h 36 min
Bit rate : 12.4 Mb/s
Width : 1 488 pixels
Height : 1 080 pixels
Display aspect ratio : 1.378
Frame rate mode : Constant
Frame rate : 23.976 FPS
Color space : YUV
Chroma subsampling : 4:2:0
Bit depth : 8 bits
Scan type : Progressive
Bits/(Pixel*Frame) : 0.323
Stream size : 8.39 GiB (96%)
Writing library : x264 core 158 r2984 3759fcb
Encoding settings : cabac=1 / ref=4 / deblock=1:0:0 / analyse=0x3:0x133 / me=umh / subme=7 / psy=1 / psy_rd=1.00:0.00 / mixed_ref=1 / me_range=16 / chroma_me=1 / trellis=2 / 8x8dct=1 / cqm=0 / deadzone=21,11 / fast_pskip=0 / chroma_qp_offset=-2 / threads=12 / lookahead_threads=2 / sliced_threads=0 / nr=0 / decimate=1 / interlaced=0 / bluray_compat=0 / constrained_intra=0 / bframes=3 / b_pyramid=2 / b_adapt=1 / b_bias=0 / direct=3 / weightb=1 / open_gop=0 / weightp=2 / keyint=250 / keyint_min=23 / scenecut=40 / intra_refresh=0 / rc_lookahead=50 / rc=2pass / mbtree=1 / bitrate=12437 / ratetol=1.0 / qcomp=0.60 / qpmin=0 / qpmax=69 / qpstep=4 / cplxblur=20.0 / qblur=0.5 / ip_ratio=1.40 / aq=1:1.00
Language : Japanese
Default : Yes
Forced : No

Audio
ID : 2
Format : FLAC
Format/Info : Free Lossless Audio Codec
Codec ID : A_FLAC
Duration : 1 h 36 min
Bit rate mode : Variable
Bit rate : 532 kb/s
Channel(s) : 1 channel
Channel layout : C
Sampling rate : 48.0 kHz
Frame rate : 11.719 FPS (4096 SPF)
Bit depth : 24 bits
Compression mode : Lossless
Stream size : 367 MiB (4%)
Writing library : libFLAC 1.3.2 (UTC 2017-01-01)
Language : Japanese
Default : Yes
Forced : No

Text
ID : 3
Format : UTF-8
Codec ID : S_TEXT/UTF8
Codec ID/Info : UTF-8 Plain Text
Duration : 1 h 36 min
Bit rate : 31 b/s
Count of elements : 721
Stream size : 22.5 KiB (0%)
Language : English
Default : Yes
Forced : No

Menu
00:00:00.000 : en:Chapter 01
00:04:41.364 : en:Chapter 02
00:08:24.337 : en:Chapter 03
00:10:25.958 : en:Chapter 04
00:15:10.034 : en:Chapter 05
00:17:17.119 : en:Chapter 06
00:21:16.149 : en:Chapter 07
00:23:35.414 : en:Chapter 08
00:28:24.703 : en:Chapter 09
00:32:04.380 : en:Chapter 10
00:33:17.036 : en:Chapter 11
00:37:17.818 : en:Chapter 12
00:42:35.469 : en:Chapter 13
00:48:13.140 : en:Chapter 14
00:54:12.249 : en:Chapter 15
01:00:01.598 : en:Chapter 16
01:06:19.809 : en:Chapter 17
01:09:28.289 : en:Chapter 18
01:11:17.898 : en:Chapter 19
01:15:51.880 : en:Chapter 20
01:21:00.689 : en:Chapter 21
01:24:57.675 : en:Chapter 22
01:28:20.461 : en:Chapter 23






Godzilla.1954.Criterion.1080p.BluRay.x264-JRP.torrent
最新回复 (0)
返回