如资源无法下载,请加群!

[2013][欧美][喜剧][WEB-1080P]记住星期日 Remember.Sunday.2013.1080p.AMZN.WEBRip.DDP2.0.x264-monkee 5.64GB

幸运 7天前 45

帖子完整标题:记住星期日 Remember.Sunday.2013.1080p.AMZN.WEBRip.DDP2.0.x264-monkee 5.64GB




◎译  名 记住星期日
◎片  名 Remember Sunday
◎年  代 2013
◎产  地 美国
◎类  别 喜剧 / 爱情
◎语  言 英语
◎上映日期 2013-04-21(美国)
◎IMDb评分 6.9/10 from 10780 users
◎IMDb链接 https://www.imdb.com/title/tt2770480
◎豆瓣评分 7.0/10 from 349 users
◎豆瓣链接 https://movie.douban.com/subject/21795340/
◎片  长 90分钟
◎导  演 Jeff Bleckner
◎编  剧 Michael Kase / Barry Morrow
◎主  演 阿丽克西斯·布莱德尔 Alexis Bledel
      扎克瑞·莱维 Zachary Levi
      Merritt Wever
      Barry Shabaka Henley
      杰里·阿德勒 Jerry Adler
      大卫·霍夫曼 David Hoffman
      詹姆斯·杜蒙特 James DuMont
      Griff Furst
      Chris Conner
      Billy Slaughter
      Michael Arata


◎标  签 爱情 | 美国 | AlexisBledel | 美国电影 | 喜剧 | ZacharyLevi | 2013 | 浪漫

◎简  介

  茉莉(阿丽克西斯·布莱德尔 Alexis Bledel 饰)觉得自己的一生就从来没有顺利过,好像每时每刻都处在低谷里。一次偶然中,她邂逅了名为古斯(扎克瑞·莱维 Zachary Levi 饰)的珠宝店员工,英俊帅气的古斯一下子就吸引了茉莉的注意,而古斯似乎也对茉莉充满了兴趣,两人一见钟情,茉莉的春天真的就要来了吗?
  事情并没有茉莉想的那么简单,随着交往的深入,茉莉发现古斯常常处于一种心不在焉的状态之中,而且总是容易忘记和她相关的一些事情,难道古斯对茉莉只是逢场作戏,并没有放在心上吗?原来,古斯患有一种古怪的疾病,那就是他无法保留任何的短期记忆。
Video
ID : 1
Format : AVC
Format/Info : Advanced Video Codec
Format profile : [email protected]
Format settings : CABAC / 4 Ref Frames
Format settings, CABAC : Yes
Format settings, Reference frames : 4 frames
Codec ID : V_MPEG4/ISO/AVC
Duration : 1 h 36 min
Bit rate mode : Variable
Bit rate : 8 105 kb/s
Maximum bit rate : 15.0 Mb/s
Width : 1 920 pixels
Height : 1 080 pixels
Display aspect ratio : 16:9
Frame rate mode : Constant
Frame rate : 23.976 (24000/1001) FPS
Color space : YUV
Chroma subsampling : 4:2:0
Bit depth : 8 bits
Scan type : Progressive
Bits/(Pixel*Frame) : 0.163
Stream size : 5.48 GiB (97%)
Default : Yes
Forced : No
Color range : Limited
Color primaries : BT.709
Transfer characteristics : BT.709
Matrix coefficients : BT.709

Audio
ID : 2
Format : E-AC-3
Format/Info : Enhanced AC-3
Commercial name : Dolby Digital Plus
Codec ID : A_EAC3
Duration : 1 h 36 min
Bit rate mode : Constant
Bit rate : 224 kb/s
Channel(s) : 2 channels
Channel layout : L R
Sampling rate : 48.0 kHz
Frame rate : 31.250 FPS (1536 SPF)
Compression mode : Lossy
Stream size : 155 MiB (3%)
Language : English
Service kind : Complete Main
Default : Yes
Forced : No

Text #1
ID : 3
Format : UTF-8
Codec ID : S_TEXT/UTF8
Codec ID/Info : UTF-8 Plain Text
Duration : 1 h 35 min
Bit rate : 80 b/s
Count of elements : 2050
Stream size : 56.4 KiB (0%)
Language : English
Default : No
Forced : No

Text #2
ID : 4
Format : UTF-8
Codec ID : S_TEXT/UTF8
Codec ID/Info : UTF-8 Plain Text
Duration : 1 h 35 min
Bit rate : 83 b/s
Count of elements : 2144
Stream size : 58.8 KiB (0%)
Title : SDH
Language : English
Default : No
Forced : No






Remember.Sunday.2013.1080p.AMZN.WEBRip.DDP2.0.x264-monkee.torrent
最新回复 (0)
返回
发新帖
即将对游客闭站,请注册账号备用!
影音屋为您提供最新的720P、1080P、2K、4K、原盘高清电影下载,内部交流社区,欢迎体验。影音屋,更多好电影待您发现!
加入福利电报群 加入福利企鹅群 淘宝天猫漏洞单