如资源无法下载,请加群!

[2013][欧美][喜剧][WEB-1080P]记住星期日 Remember.Sunday.2013.1080p.WEBRip.x264-RARBG 1.85GB

幸运 5天前 38

帖子完整标题:记住星期日 Remember.Sunday.2013.1080p.WEBRip.x264-RARBG 1.85GB




◎译  名 记住星期日
◎片  名 Remember Sunday
◎年  代 2013
◎产  地 美国
◎类  别 喜剧 / 爱情
◎语  言 英语
◎上映日期 2013-04-21(美国)
◎IMDb评分 6.9/10 from 10780 users
◎IMDb链接 https://www.imdb.com/title/tt2770480
◎豆瓣评分 7.0/10 from 349 users
◎豆瓣链接 https://movie.douban.com/subject/21795340/
◎片  长 90分钟
◎导  演 Jeff Bleckner
◎编  剧 Michael Kase / Barry Morrow
◎主  演 阿丽克西斯·布莱德尔 Alexis Bledel
      扎克瑞·莱维 Zachary Levi
      Merritt Wever
      Barry Shabaka Henley
      杰里·阿德勒 Jerry Adler
      大卫·霍夫曼 David Hoffman
      詹姆斯·杜蒙特 James DuMont
      Griff Furst
      Chris Conner
      Billy Slaughter
      Michael Arata


◎标  签 爱情 | 美国 | AlexisBledel | 美国电影 | 喜剧 | ZacharyLevi | 2013 | 浪漫

◎简  介

  茉莉(阿丽克西斯·布莱德尔 Alexis Bledel 饰)觉得自己的一生就从来没有顺利过,好像每时每刻都处在低谷里。一次偶然中,她邂逅了名为古斯(扎克瑞·莱维 Zachary Levi 饰)的珠宝店员工,英俊帅气的古斯一下子就吸引了茉莉的注意,而古斯似乎也对茉莉充满了兴趣,两人一见钟情,茉莉的春天真的就要来了吗?
  事情并没有茉莉想的那么简单,随着交往的深入,茉莉发现古斯常常处于一种心不在焉的状态之中,而且总是容易忘记和她相关的一些事情,难道古斯对茉莉只是逢场作戏,并没有放在心上吗?原来,古斯患有一种古怪的疾病,那就是他无法保留任何的短期记忆。
Video
ID : 1
Format : AVC
Format/Info : Advanced Video Codec
Format profile : [email protected]
Format settings : CABAC / 4 Ref Frames
Format settings, CABAC : Yes
Format settings, Reference frames : 4 frames
Codec ID : avc1
Codec ID/Info : Advanced Video Coding
Duration : 1 h 36 min
Bit rate : 2 500 kb/s
Width : 1 920 pixels
Height : 1 080 pixels
Display aspect ratio : 16:9
Frame rate mode : Constant
Frame rate : 23.976 (23976/1000) FPS
Color space : YUV
Chroma subsampling : 4:2:0
Bit depth : 8 bits
Scan type : Progressive
Bits/(Pixel*Frame) : 0.050
Stream size : 1.69 GiB (92%)
Writing library : x264 core 152 r2851M ba24899
Encoding settings : cabac=1 / ref=4 / deblock=1:-1:-1 / analyse=0x3:0x113 / me=umh / subme=9 / psy=1 / psy_rd=1.00:0.15 / mixed_ref=1 / me_range=24 / chroma_me=1 / trellis=2 / 8x8dct=1 / cqm=0 / deadzone=21,11 / fast_pskip=1 / chroma_qp_offset=-3 / threads=16 / lookahead_threads=4 / sliced_threads=0 / nr=0 / decimate=1 / interlaced=0 / bluray_compat=0 / constrained_intra=0 / bframes=3 / b_pyramid=2 / b_adapt=2 / b_bias=0 / direct=3 / weightb=1 / open_gop=0 / weightp=2 / keyint=250 / keyint_min=25 / scenecut=40 / intra_refresh=0 / rc_lookahead=50 / rc=2pass / mbtree=1 / bitrate=2500 / ratetol=1.0 / qcomp=0.60 / qpmin=0 / qpmax=69 / qpstep=4 / cplxblur=20.0 / qblur=0.5 / vbv_maxrate=31250 / vbv_bufsize=31250 / nal_hrd=none / filler=0 / ip_ratio=1.40 / aq=3:1.00
Encoded date : UTC 2019-12-01 17:49:01
Tagged date : UTC 2019-12-01 17:49:01
Codec configuration box : avcC

Audio
ID : 2
Format : AAC LC
Format/Info : Advanced Audio Codec Low Complexity
Codec ID : mp4a-40-2
Duration : 1 h 36 min
Bit rate mode : Constant
Bit rate : 224 kb/s
Channel(s) : 2 channels
Channel layout : L R
Sampling rate : 48.0 kHz
Frame rate : 46.875 FPS (1024 SPF)
Compression mode : Lossy
Stream size : 155 MiB (8%)
Language : English
Default : Yes
Alternate group : 1
Encoded date : UTC 2019-12-01 17:49:01
Tagged date : UTC 2019-12-01 17:49:01






Remember.Sunday.2013.1080p.WEBRip.x264-RARBG.torrent
最新回复 (0)
返回
发新帖
即将对游客闭站,请注册账号备用!
影音屋为您提供最新的720P、1080P、2K、4K、原盘高清电影下载,内部交流社区,欢迎体验。影音屋,更多好电影待您发现!
加入福利电报群 加入福利企鹅群 淘宝天猫漏洞单