如资源无法下载,请加群!

[2018][欧美][剧情][WEB-1080P]雨中的秋城/沦陷雨乡 Fall.City.2018.1080p.AMZN.WEBRip.DDP5.1.x264-CM 6.55GB

幸运 7天前 59

帖子完整标题:雨中的秋城/沦陷雨乡 Fall.City.2018.1080p.AMZN.WEBRip.DDP5.1.x264-CM 6.55GB




◎译  名 雨中的秋城 / 沦陷雨乡 / 秋城 / 雨乡流年
◎片  名 Fall City
◎年  代 2018
◎产  地 美国
◎类  别 剧情 / 爱情 / 奇幻
◎语  言 英语
◎上映日期 2018-11-12(美国)
◎IMDb评分 5.3/10 from 217 users
◎IMDb链接 https://www.imdb.com/title/tt7475832
◎豆瓣评分 6.5/10 from 195 users
◎豆瓣链接 https://movie.douban.com/subject/30384506/
◎片  长 93分钟
◎导  演 Nathan D. Lee
◎编  剧 Erich Cannon / Nathan D. Lee
◎主  演 Dashiell Wolf
      Meranda Long
      Paul Hobson


◎标  签 美国 | 圣诞节 | 温情 | 2018 | 爱情 | 美国电影 | 人生 | 亲情

◎简  介

  Recently-paroled thief, Jon Price, is forced to return to his small, rainy hometown of Fall City, Washington at Christmastime. Jon unexpectedly begins to find joy as he meets and grows closer to a struggling single mother who shows him true kindness, and he begins filling the role of a father for her young daughter.
Video
ID : 1
Format : AVC
Format/Info : Advanced Video Codec
Format profile : [email protected]
Format settings : CABAC / 4 Ref Frames
Format settings, CABAC : Yes
Format settings, Reference frames : 4 frames
Codec ID : V_MPEG4/ISO/AVC
Duration : 1 h 33 min
Bit rate mode : Constant
Bit rate : 10 000 kb/s
Width : 1 920 pixels
Height : 800 pixels
Display aspect ratio : 2.40:1
Frame rate mode : Constant
Frame rate : 23.976 (24000/1001) FPS
Color space : YUV
Chroma subsampling : 4:2:0
Bit depth : 8 bits
Scan type : Progressive
Bits/(Pixel*Frame) : 0.272
Stream size : 6.38 GiB (97%)
Default : Yes
Forced : No
Color range : Limited
Color primaries : BT.709
Transfer characteristics : BT.709
Matrix coefficients : BT.709

Audio
ID : 2
Format : E-AC-3
Format/Info : Enhanced AC-3
Commercial name : Dolby Digital Plus
Codec ID : A_EAC3
Duration : 1 h 33 min
Bit rate mode : Constant
Bit rate : 256 kb/s
Channel(s) : 6 channels
Channel layout : L R C LFE Ls Rs
Sampling rate : 48.0 kHz
Frame rate : 31.250 FPS (1536 SPF)
Compression mode : Lossy
Stream size : 170 MiB (3%)
Title : English
Language : English
Service kind : Complete Main
Default : Yes
Forced : No

Text
ID : 3
Format : UTF-8
Codec ID : S_TEXT/UTF8
Codec ID/Info : UTF-8 Plain Text
Duration : 1 h 32 min
Bit rate : 43 b/s
Count of elements : 1014
Stream size : 29.3 KiB (0%)
Title : English [SDH]
Language : English
Default : No
Forced : No






Fall.City.2018.1080p.AMZN.WEBRip.DDP5.1.x264-CM.torrent
最新回复 (0)
返回
发新帖
即将对游客闭站,请注册账号备用!
影音屋为您提供最新的720P、1080P、2K、4K、原盘高清电影下载,内部交流社区,欢迎体验。影音屋,更多好电影待您发现!
加入福利电报群 加入福利企鹅群 淘宝天猫漏洞单