如资源无法下载,请加群!

[更 早][其他][剧情][WEB-1080P]冰雪谜案/冰雪迷案 Smillas.Sense.of.Snow.1997.1080p.AMZN.WEBRip.DDP5.1.x264-pawel2006 12.

幸运 5天前 34

帖子完整标题:冰雪谜案/冰雪迷案 Smillas.Sense.of.Snow.1997.1080p.AMZN.WEBRip.DDP5.1.x264-pawel2006 12.96GB




◎译  名 冰雪谜案 / 冰雪迷案 / 影都雪恋 / 雪地疑云之石破天惊
◎片  名 Smilla's Sense of Snow
◎年  代 1997
◎产  地 丹麦 / 德国 / 瑞典
◎类  别 剧情 / 动作 / 惊悚
◎语  言 英语 / Inuktitut
◎上映日期 1998-10-15
◎IMDb评分 6.4/10 from 13116 users
◎IMDb链接 https://www.imdb.com/title/tt0120152
◎豆瓣评分 6.5/10 from 603 users
◎豆瓣链接 https://movie.douban.com/subject/1293130/
◎片  长 121 分钟
◎导  演 比利·奥古斯特 Bille August
◎编  剧 安·白德曼 Ann Biderman / Peter H?eg
◎主  演 朱莉娅·奥蒙德 Julia Ormond
      加布里埃尔·伯恩 Gabriel Byrne
      理查德·哈里斯 Richard Harris


◎标  签 丹麦 | 悬疑 | 比尔·奥古斯特 | 丹麦电影 | 瑞典 | 比利·奥古斯特 | 1990s | Bille_August

◎简  介

  1859年,一颗陨石坠落在格陵兰,掀起的冰雪覆盖了茫茫大地……时间回到当代,一名因纽特男孩以赛亚坠楼身亡,他的邻居——冰原学者史米拉(Julia Ormond 饰)发现现场疑点重重,更为重要的是,史米拉清楚有恐高症的以赛亚不会去房顶玩耍。史米拉为了不辜负她和以赛亚的友情,决意将真相调查到底。
  以赛亚的父亲生前为格陵兰矿业公司雇佣,结果不幸死于野外事故,同时陪同父亲工作但幸免于难的以赛亚开始定期接受丹麦顶尖医生的体检,而医生背后则是矿业公司总裁。各种神秘人物不断阻扰史米拉的调查,同一栋楼内的失语症机械师站到了史米拉身边予以保护让调查得以继续。从一系列谋杀与陷害事件中逃离后,史米拉终于发现一切都源于那颗陨石……

◎获奖情况

  第47届柏林国际电影节(1997)
  金熊奖 最佳影片(提名) 比利·奥古斯特
Video
ID : 1
Format : AVC
Format/Info : Advanced Video Codec
Format profile : [email protected]
Format settings : CABAC / 4 Ref Frames
Format settings, CABAC : Yes
Format settings, Reference frames : 4 frames
Codec ID : V_MPEG4/ISO/AVC
Duration : 2 h 1 min
Bit rate : 14.6 Mb/s
Width : 1 920 pixels
Height : 1 080 pixels
Display aspect ratio : 16:9
Frame rate mode : Constant
Frame rate : 23.976 (24000/1001) FPS
Color space : YUV
Chroma subsampling : 4:2:0
Bit depth : 8 bits
Scan type : Progressive
Bits/(Pixel*Frame) : 0.295
Stream size : 12.4 GiB (96%)
Default : Yes
Forced : No
Color range : Limited
Color primaries : BT.709
Transfer characteristics : BT.709
Matrix coefficients : BT.709

Audio
ID : 2
Format : E-AC-3
Format/Info : Enhanced AC-3
Commercial name : Dolby Digital Plus
Codec ID : A_EAC3
Duration : 2 h 1 min
Bit rate mode : Constant
Bit rate : 640 kb/s
Channel(s) : 6 channels
Channel layout : L R C LFE Ls Rs
Sampling rate : 48.0 kHz
Frame rate : 31.250 FPS (1536 SPF)
Compression mode : Lossy
Stream size : 556 MiB (4%)
Title : English
Language : English
Service kind : Complete Main
Default : Yes
Forced : No

Text
ID : 3
Format : UTF-8
Codec ID : S_TEXT/UTF8
Codec ID/Info : UTF-8 Plain Text
Duration : 1 h 57 min
Bit rate : 46 b/s
Count of elements : 1463
Stream size : 40.2 KiB (0%)
Title : English [SDH]
Language : English
Default : No
Forced : No






Smillas.Sense.of.Snow.1997.1080p.AMZN.WEBRip.DDP5.1.x264-pawel2006.torrent
最新回复 (0)
返回