如资源无法下载,请加群!

[2008][欧美][喜剧][WEB-1080P]农家小屋/小屋惊魂 The.Cottage.2008.1080p.AMZN.WEBRip.DD5.1.x264-ABM 4.53GB

幸运 7天前 42

帖子完整标题:农家小屋/小屋惊魂 The.Cottage.2008.1080p.AMZN.WEBRip.DD5.1.x264-ABM 4.53GB




◎译  名 农家小屋 / 小屋惊魂 / 欢迎光临农家小屋
◎片  名 The Cottage
◎年  代 2008
◎产  地 英国
◎类  别 喜剧 / 惊悚 / 恐怖 / 犯罪
◎语  言 英语 / 法语
◎上映日期 2008-02-07
◎IMDb评分 6.1/10 from 11438 users
◎IMDb链接 https://www.imdb.com/title/tt0465430
◎豆瓣评分 6.5/10 from 1526 users
◎豆瓣链接 https://movie.douban.com/subject/2137130/
◎片  长 92分钟
◎导  演 Paul Andrew Williams
◎编  剧 Paul Andrew Williams
◎主  演 Andy Serkis
      Jennifer Ellison
      Logan Wong


◎标  签 恐怖 | 英国 | 血腥 | 喜剧 | 恐怖喜剧 | 英国电影 | 惊悚 | 我看过的电影

◎简  介

  戴维(Andy Serkis 饰)和皮特(Reece Shearsmith 饰)是两个一事无成还笑话百出的小人物,这两个穷极生疯的家伙绑架了某黑帮老大的女儿崔茜(Jennifer Ellison 饰),并开口索要10万英镑赎金。然而黑帮老大也不是好对付的,更何况面对的是两个什么都不会的新手。不久,曾参与策划绑架的崔茜的弟弟安德鲁(Steven O'Donnell 饰)连同两名华裔杀手赶到戴维他们的藏身地点。一来二去,形势陡然逆转,安德鲁被打晕,戴维和皮特反而成了崔茜的人质。
  崔茜到附近农庄打电话求救,然而才出龙潭,又入虎穴。一个更为恐怖的对手向这群人慢慢逼近……
Video
ID : 1
Format : AVC
Format/Info : Advanced Video Codec
Format profile : [email protected]
Format settings : CABAC / 4 Ref Frames
Format settings, CABAC : Yes
Format settings, Reference frames : 4 frames
Codec ID : V_MPEG4/ISO/AVC
Duration : 1 h 31 min
Bit rate mode : Variable
Bit rate : 6 450 kb/s
Maximum bit rate : 15.0 Mb/s
Width : 1 920 pixels
Height : 816 pixels
Display aspect ratio : 2.35:1
Frame rate mode : Constant
Frame rate : 23.976 (24000/1001) FPS
Color space : YUV
Chroma subsampling : 4:2:0
Bit depth : 8 bits
Scan type : Progressive
Bits/(Pixel*Frame) : 0.172
Stream size : 4.12 GiB (91%)
Writing library : x264 core 148 r2623 d5b2374
Encoding settings : cabac=1 / ref=4 / deblock=1:-1:-1 / analyse=0x3:0x133 / me=umh / subme=9 / psy=1 / psy_rd=1.00:0.15 / mixed_ref=1 / me_range=24 / chroma_me=1 / trellis=2 / 8x8dct=1 / cqm=0 / deadzone=21,11 / fast_pskip=1 / chroma_qp_offset=-3 / threads=25 / lookahead_threads=4 / sliced_threads=0 / nr=150 / decimate=1 / interlaced=0 / bluray_compat=0 / constrained_intra=0 / bframes=8 / b_pyramid=2 / b_adapt=2 / b_bias=0 / direct=3 / weightb=1 / open_gop=0 / weightp=2 / keyint=120 / keyint_min=61 / scenecut=0 / intra_refresh=0 / rc_lookahead=120 / rc=crf / mbtree=1 / crf=18.0 / qcomp=0.60 / qpmin=0 / qpmax=69 / qpstep=4 / vbv_maxrate=15000 / vbv_bufsize=31250 / crf_max=0.0 / nal_hrd=vbr / filler=0 / ip_ratio=1.40 / aq=3:1.00
Default : Yes
Forced : No
Color range : Limited
Color primaries : BT.709
Transfer characteristics : BT.709
Matrix coefficients : BT.709

Audio
ID : 2
Format : E-AC-3
Format/Info : Enhanced AC-3
Commercial name : Dolby Digital Plus
Codec ID : A_EAC3
Duration : 1 h 31 min
Bit rate mode : Constant
Bit rate : 640 kb/s
Channel(s) : 6 channels
Channel layout : L R C LFE Ls Rs
Sampling rate : 48.0 kHz
Frame rate : 31.250 FPS (1536 SPF)
Compression mode : Lossy
Stream size : 419 MiB (9%)
Language : English
Service kind : Complete Main
Default : Yes
Forced : No

Text
ID : 3
Format : UTF-8
Codec ID : S_TEXT/UTF8
Codec ID/Info : UTF-8 Plain Text
Duration : 1 h 30 min
Bit rate : 43 b/s
Count of elements : 1165
Stream size : 28.6 KiB (0%)
Language : English
Default : No
Forced : No






The.Cottage.2008.1080p.AMZN.WEBRip.DD5.1.x264-ABM.torrent
最新回复 (0)
返回
发新帖
即将对游客闭站,请注册账号备用!
影音屋为您提供最新的720P、1080P、2K、4K、原盘高清电影下载,内部交流社区,欢迎体验。影音屋,更多好电影待您发现!
加入福利电报群 加入福利企鹅群 淘宝天猫漏洞单