如资源无法下载,请加群!

[2019][内地][其他][演唱会][张学友 醒着做梦音乐会2018 蓝光原盘提取 带章节 未压制 3音轨][1080P/MKV][23.73G]

幸运 1月前 146

General

Unique ID                      : 253859860782388667057292892737219973007 (0xBEFBA179379A95C1E73F3F718B6DCF8F)

Complete name                  : D:\演唱会 蓝光原盘 提取 不带章节 未压制\张学友\张学友 醒着做梦音乐会 2018 .mkv

Format                         : Matroska

Format version                 : Version 4 / Version 2

File size                      : 24.2 GiB

Duration                       : 1 h 25 min

Overall bit rate mode          : Variable

Overall bit rate               : 40.5 Mb/s

Encoded date                   : UTC 2019-07-08 14:48:39

Writing application            : mkvmerge v35.0.0 ('All The Love In The World') 32-bit

Writing library                : libebml v1.3.9 + libmatroska v1.5.2


Video

ID                             : 1

Format                         : AVC

Format/Info                    : Advanced Video Codec

Format profile                 : [email protected]

Format settings, CABAC         : Yes

Format settings, ReFrames      : 4 frames

Codec ID                       : V_MPEG4/ISO/AVC

Duration                       : 1 h 25 min

Bit rate mode                  : Variable

Bit rate                       : 28.4 Mb/s

Maximum bit rate               : 30.0 Mb/s

Width                          : 1 920 pixels

Height                         : 1 080 pixels

Display aspect ratio           : 16:9

Frame rate mode                : Constant

Frame rate                     : 29.970 (29970/1000) FPS

Original frame rate            : 29.970 (30000/1001) FPS

Color space                    : YUV

Chroma subsampling             : 4:2:0

Bit depth                      : 8 bits

Scan type                      : MBAFF

Scan type, store method        : Interleaved fields

Scan order                     : Top Field First

Bits/(Pixel*Frame)             : 0.457

Stream size                    : 17.0 GiB (70%)

Default                        : Yes

Forced                         : No


Audio #1

ID                             : 2

Format                         : DTS

Format/Info                    : Digital Theater Systems

Format profile                 : MA / 96/24 / Core

Mode                           : 16

Format settings, Endianness    : Big

Codec ID                       : A_DTS

Duration                       : 1 h 25 min

Bit rate mode                  : Variable / Constant / Constant

Bit rate                       : 6 758 kb/s / 1 509 kb/s / 1 509 kb/s

Channel(s)                     : 6 channels

Channel positions              : Front: L C R, Side: L R, LFE

Sampling rate                  : 96.0 kHz / 96.0 kHz / 48.0 kHz

Frame rate                     : 93.750 FPS (512 spf)

Bit depth                      : 24 bits

Compression mode               : Lossless / Lossy / Lossy

Stream size                    : 4.05 GiB (17%)

Language                       : Chinese

Default                        : Yes

Forced                         : No


Audio #2

ID                             : 3

Format                         : AC-3

Format/Info                    : Audio Coding 3

Format settings, Endianness    : Big

Codec ID                       : A_AC3

Duration                       : 1 h 25 min

Bit rate mode                  : Constant

Bit rate                       : 640 kb/s

Channel(s)                     : 6 channels

Channel positions              : Front: L C R, Side: L R, LFE

Sampling rate                  : 48.0 kHz

Frame rate                     : 31.250 FPS (1536 spf)

Bit depth                      : 16 bits

Compression mode               : Lossy

Stream size                    : 393 MiB (2%)

Language                       : Chinese

Service kind                   : Complete Main

Default                        : No

Forced                         : No


Audio #3

ID                             : 4

Format                         : PCM

Codec ID                       : A_PCM/INT/LIT

Duration                       : 1 h 25 min

Bit rate mode                  : Constant

Bit rate                       : 4 608 kb/s

Channel(s)                     : 2 channels

Sampling rate                  : 96.0 kHz

Frame rate                     : 199.955 FPS (480 spf)

Bit depth                      : 24 bits

Stream size                    : 2.76 GiB (11%)

Language                       : Chinese

Default                        : No

Forced                         : No


Text #1

ID                             : 5

Format                         : PGS

Muxing mode                    : zlib

Codec ID                       : S_HDMV/PGS

Codec ID/Info                  : Picture based subtitle format used on BDs/HD-DVDs

Duration                       : 1 h 21 min

Bit rate                       : 20.3 kb/s

Count of elements              : 864

Stream size                    : 11.8 MiB (0%)

Language                       : Chinese

Default                        : Yes

Forced                         : No


Text #2

ID                             : 6

Format                         : PGS

Muxing mode                    : zlib

Codec ID                       : S_HDMV/PGS

Codec ID/Info                  : Picture based subtitle format used on BDs/HD-DVDs

Duration                       : 1 h 21 min

Bit rate                       : 19.0 kb/s

Count of elements              : 864

Stream size                    : 11.0 MiB (0%)

Language                       : Chinese

Default                        : No

Forced                         : No


Menu

00:00:00.000                   : :第 01 章

00:12:24.009                   : :第 02 章

00:16:33.192                   : :第 03 章

00:20:09.208                   : :第 04 章

00:24:55.093                   : :第 05 章

00:28:40.719                   : :第 06 章

00:32:19.804                   : :第 07 章

00:35:37.502                   : :第 08 章

00:39:49.653                   : :第 09 章

00:49:07.511                   : :第 10 章

00:53:47.490                   : :第 11 章

00:58:21.264                   : :第 12 章

01:03:22.064                   : :第 13 章

01:06:59.815                   : :第 14 章

01:11:44.400                   : :第 15 章

01:17:04.453                   : :第 16 章


下载链接


百度网盘

提取码:wbzj


解压密码:bthome168

最新回复 (0)
返回