如资源无法下载,请在「交流」反馈!

[2017][欧美][其他][WEB-1080P]倾向于风 Leaning.Into.The.Wind-Andy.Goldsworthy.2017.1080p.AMZN.WEBRip.DDP5.1.x264-C

10000 10月前 629

帖子完整标题:倾向于风 Leaning.Into.The.Wind-Andy.Goldsworthy.2017.1080p.AMZN.WEBRip.DDP5.1.x264-Cinefeel 5.99GB




◎译  名 倾向于风
◎片  名 Leaning Into the Wind: Andy Goldsworthy
◎年  代 2017
◎产  地 英国
◎类  别 纪录片
◎语  言 英语
◎上映日期 2017-04-08(美国)
◎IMDb评分 6.8/10 from 264 users
◎IMDb链接 https://www.imdb.com/title/tt6263828
◎豆瓣评分 0/10 from 0 users
◎豆瓣链接 https://movie.douban.com/subject/27073227/
◎导  演 Thomas Riedelsheimer
◎编  剧 Thomas Riedelsheimer

◎标  签 纪录片 | 艺术 | Documentary | Andy_Goldsworthy | 英国 | 纪录 | AndyGoldsworthy | 紀錄片

◎简  介

  Sixteen years after the release of the ground-breaking film Rivers and Tides - Andy Goldsworthy Working with Time director Thomas Riedelsheimer has returned to work with the artist. Leaning into the Wind - Andy Goldsworthy follows Andy on his exploration of the layers of his world and the impact of the years on himself and his art. As Goldsworthy introduces his own body into the work it becomes at the same time even more fragile and personal and also sterner and tougher, incorporating massive machinery and crews on his bigger projects. Riedelsheimer's exquisite film illuminates Goldsworthy's mind as it reveals his art. Written by Leslie Hills

◎获奖情况

  第20届英国独立电影奖(2017)
  最佳摄影(提名)
  最佳音乐(提名)
Video
ID : 1
Format : AVC
Format/Info : Advanced Video Codec
Format profile : [email protected]
Format settings : CABAC / 4 Ref Frames
Format settings, CABAC : Yes
Format settings, Reference frames : 4 frames
Codec ID : V_MPEG4/ISO/AVC
Duration : 1 h 33 min
Bit rate mode : Constant
Bit rate : 8 569 kb/s
Nominal bit rate : 10 000 kb/s
Width : 1 920 pixels
Height : 1 080 pixels
Display aspect ratio : 16:9
Frame rate mode : Constant
Frame rate : 25.000 FPS
Color space : YUV
Chroma subsampling : 4:2:0
Bit depth : 8 bits
Scan type : Progressive
Bits/(Pixel*Frame) : 0.165
Stream size : 5.58 GiB (93%)
Default : Yes
Forced : No
Color range : Limited
Color primaries : BT.709
Transfer characteristics : BT.709
Matrix coefficients : BT.709

Audio
ID : 2
Format : E-AC-3
Format/Info : Enhanced AC-3
Commercial name : Dolby Digital Plus
Codec ID : A_EAC3
Duration : 1 h 33 min
Bit rate mode : Constant
Bit rate : 640 kb/s
Channel(s) : 6 channels
Channel layout : L R C LFE Ls Rs
Sampling rate : 48.0 kHz
Frame rate : 31.250 FPS (1536 SPF)
Compression mode : Lossy
Stream size : 426 MiB (7%)
Language : English
Service kind : Complete Main
Default : Yes
Forced : No






Leaning.Into.The.Wind-Andy.Goldsworthy.2017.1080p.AMZN.WEBRip.DDP5.1.x264-Cinefeel.torrent
还没有人收藏过本帖~
最新回复 (0)
返回