如资源无法下载,请在「交流」反馈!

[更 早][欧美][动作][BD-1080P]地狱男爵/地狱小子 Hellboy.2004.DC.REMASTERED.1080p.BluRay.x264.DTS-HD.MA.7.1-SWTYBLZ 13.

10000 10月前 773

帖子完整标题:地狱男爵/地狱小子 Hellboy.2004.DC.REMASTERED.1080p.BluRay.x264.DTS-HD.MA.7.1-SWTYBLZ 13.78GB




◎译  名 地狱男爵 / 地狱小子 / 地狱怪客 / 地狱男孩 / 天魔特攻 / 烈焰奇侠
◎片  名 Hellboy
◎年  代 2004
◎产  地 美国
◎类  别 动作 / 奇幻 / 冒险
◎语  言 英语 / 俄语
◎上映日期 2004-04-02(美国)
◎IMDb评分 6.8/10 from 294044 users
◎IMDb链接 https://www.imdb.com/title/tt0167190
◎豆瓣评分 6.9/10 from 55929 users
◎豆瓣链接 https://movie.douban.com/subject/1308851/
◎片  长 122分钟
◎导  演 Guillermo del Toro
◎编  剧 Guillermo del Toro / Peter Briggs / 迈克·米格诺拉 Mike Mignola
◎主  演 朗·普尔曼 Ron Perlman
      约翰·赫特 John Hurt
      塞尔玛·布莱尔 Selma Blair
      鲁珀特·伊文斯 Rupert Evans
      卡瑞尔·罗登 Karel Roden
      杰弗里·塔伯 Jeffrey Tambor
      道格·琼斯 Doug Jones
      拉迪斯拉夫·伯兰 Ladislav Beran
      Biddy Hodson
      克里·约翰逊 Corey Johnson
      凯文·特诺 Kevin Trainor
      布莱恩·卡斯佩 Brian Caspe
      詹姆斯·巴伯森 James Babson
      安格斯·麦金尼斯 Angus MacInnes
      吉姆·霍威克 Jim Howick
      罗里·科普斯 Rory Copus


◎标  签 科幻 | 美国 | 魔幻 | 漫画改编 | 动作 | 美国电影 | 奇幻 | 2004

◎简  介

  二战末期,溃败的德军为了扭转局势,竟然找来了一个邪恶的巫师,企图利用他召唤出地狱男爵,打败盟军。幸亏盟军的突击队在他们进行仪式时及时赶到,顺利挫败了他们的阴谋,但这时候地狱男爵——1个婴儿已经被召唤出来了,盟军见此只好收养了他。教授布鲁姆(约翰?赫特 John Hurt 饰)是地狱男爵(朗?普尔曼 Ron Perlman 饰)的养父,他用自己的善良循循教导着男爵,男爵则利用自己刀枪不入的身体和通天本领为美国政府完成了多项特种任务。然而,阴暗邪恶的本性还是一直潜藏在男爵的心底,最终人类的善良能否战胜来自地狱的邪恶?
Video
ID : 1
Format : AVC
Format/Info : Advanced Video Codec
Format profile : [email protected]
Format settings : CABAC / 4 Ref Frames
Format settings, CABAC : Yes
Format settings, Reference frames : 4 frames
Codec ID : V_MPEG4/ISO/AVC
Duration : 2 h 12 min
Bit rate : 10.8 Mb/s
Width : 1 920 pixels
Height : 1 038 pixels
Display aspect ratio : 1.85:1
Frame rate mode : Constant
Frame rate : 23.976 (24000/1001) FPS
Color space : YUV
Chroma subsampling : 4:2:0
Bit depth : 8 bits
Scan type : Progressive
Bits/(Pixel*Frame) : 0.227
Stream size : 10.0 GiB (73%)
Title : Hellboy.2004.DC.REMASTERED.1080p.BluRay.x264.DTS-HD.MA.7.1-SWTYBLZ
Writing library : x264 core 157 r2935 545de2f
Encoding settings : cabac=1 / ref=4 / deblock=1:-1:-1 / analyse=0x3:0x133 / me=umh / subme=10 / psy=1 / psy_rd=1.00:0.15 / mixed_ref=1 / me_range=48 / chroma_me=1 / trellis=2 / 8x8dct=1 / cqm=0 / deadzone=21,11 / fast_pskip=1 / chroma_qp_offset=-3 / threads=32 / lookahead_threads=5 / sliced_threads=0 / nr=0 / decimate=0 / interlaced=0 / bluray_compat=0 / constrained_intra=0 / bframes=8 / b_pyramid=2 / b_adapt=2 / b_bias=0 / direct=3 / weightb=1 / open_gop=0 / weightp=2 / keyint=250 / keyint_min=23 / scenecut=40 / intra_refresh=0 / rc_lookahead=60 / rc=crf / mbtree=1 / crf=20.0 / qcomp=0.60 / qpmin=0 / qpmax=69 / qpstep=4 / ip_ratio=1.40 / aq=1:1.00
Default : Yes
Forced : No

Audio
ID : 2
Format : DTS XLL
Format/Info : Digital Theater Systems
Commercial name : DTS-HD Master Audio
Codec ID : A_DTS
Duration : 2 h 12 min
Bit rate mode : Variable
Bit rate : 3 818 kb/s
Channel(s) : 8 channels
Channel layout : C L R LFE Lb Rb Lss Rss
Sampling rate : 48.0 kHz
Frame rate : 93.750 FPS (512 SPF)
Bit depth : 24 bits
Compression mode : Lossless
Stream size : 3.53 GiB (26%)
Title : Hellboy.2004.DC.REMASTERED.1080p.BluRay.x264.DTS-HD.MA.7.1-SWTYBLZ
Language : English
Default : No
Forced : No

Text #1
ID : 3
Format : UTF-8
Codec ID : S_TEXT/UTF8
Codec ID/Info : UTF-8 Plain Text
Duration : 3 min 50 s
Bit rate : 3 b/s
Count of elements : 4
Stream size : 95.0 Bytes (0%)
Title : English-FORCED-SRT
Language : English
Default : Yes
Forced : Yes

Text #2
ID : 4
Format : UTF-8
Codec ID : S_TEXT/UTF8
Codec ID/Info : UTF-8 Plain Text
Duration : 2 h 5 min
Bit rate : 34 b/s
Count of elements : 1181
Stream size : 31.8 KiB (0%)
Title : English-SRT
Language : English
Default : No
Forced : No

Text #3
ID : 5
Format : PGS
Muxing mode : zlib
Codec ID : S_HDMV/PGS
Codec ID/Info : Picture based subtitle format used on BDs/HD-DVDs
Duration : 2 h 5 min
Bit rate : 20.6 kb/s
Count of elements : 2378
Stream size : 18.5 MiB (0%)
Title : English-PGS
Language : English
Default : No
Forced : No

Text #4
ID : 6
Format : PGS
Muxing mode : zlib
Codec ID : S_HDMV/PGS
Codec ID/Info : Picture based subtitle format used on BDs/HD-DVDs
Duration : 2 h 7 min
Bit rate : 25.5 kb/s
Count of elements : 3000
Stream size : 23.2 MiB (0%)
Title : English-SDH-PGS
Language : English
Default : No
Forced : No

Text #5
ID : 7
Format : PGS
Muxing mode : zlib
Codec ID : S_HDMV/PGS
Codec ID/Info : Picture based subtitle format used on BDs/HD-DVDs
Duration : 2 h 5 min
Bit rate : 11.0 kb/s
Count of elements : 2450
Stream size : 9.88 MiB (0%)
Title : Arabic-PGS
Language : Arabic
Default : No
Forced : No

Text #6
ID : 8
Format : PGS
Muxing mode : zlib
Codec ID : S_HDMV/PGS
Codec ID/Info : Picture based subtitle format used on BDs/HD-DVDs
Duration : 2 h 5 min
Bit rate : 18.8 kb/s
Count of elements : 2151
Stream size : 16.9 MiB (0%)
Title : Bulgarian-PGS
Language : Bulgarian
Default : No
Forced : No

Text #7
ID : 9
Format : PGS
Muxing mode : zlib
Codec ID : S_HDMV/PGS
Codec ID/Info : Picture based subtitle format used on BDs/HD-DVDs
Duration : 2 h 5 min
Bit rate : 17.4 kb/s
Count of elements : 2452
Stream size : 15.6 MiB (0%)
Title : Chinese-PGS
Language : Chinese
Default : No
Forced : No

Text #8
ID : 10
Format : PGS
Muxing mode : zlib
Codec ID : S_HDMV/PGS
Codec ID/Info : Picture based subtitle format used on BDs/HD-DVDs
Duration : 2 h 5 min
Bit rate : 19.8 kb/s
Count of elements : 2408
Stream size : 17.8 MiB (0%)
Title : Czech-PGS
Language : Czech
Default : No
Forced : No

Text #9
ID : 11
Format : PGS
Muxing mode : zlib
Codec ID : S_HDMV/PGS
Codec ID/Info : Picture based subtitle format used on BDs/HD-DVDs
Duration : 2 h 11 min
Bit rate : 19.8 kb/s
Count of elements : 2352
Stream size : 18.6 MiB (0%)
Title : Danish-PGS
Language : Danish
Default : No
Forced : No

Text #10
ID : 12
Format : PGS
Muxing mode : zlib
Codec ID : S_HDMV/PGS
Codec ID/Info : Picture based subtitle format used on BDs/HD-DVDs
Duration : 2 h 5 min
Bit rate : 18.9 kb/s
Count of elements : 1777
Stream size : 17.0 MiB (0%)
Title : Estonian-PGS
Language : Estonian
Default : No
Forced : No

Text #11
ID : 13
Format : PGS
Muxing mode : zlib
Codec ID : S_HDMV/PGS
Codec ID/Info : Picture based subtitle format used on BDs/HD-DVDs
Duration : 2 h 11 min
Bit rate : 18.1 kb/s
Count of elements : 1932
Stream size : 17.1 MiB (0%)
Title : Finnish-PGS
Language : Finnish
Default : No
Forced : No

Text #12
ID : 14
Format : PGS
Muxing mode : zlib
Codec ID : S_HDMV/PGS
Codec ID/Info : Picture based subtitle format used on BDs/HD-DVDs
Duration : 2 h 5 min
Bit rate : 22.4 kb/s
Count of elements : 2450
Stream size : 20.1 MiB (0%)
Title : German-PGS
Language : German
Default : No
Forced : No

Text #13
ID : 15
Format : PGS
Muxing mode : zlib
Codec ID : S_HDMV/PGS
Codec ID/Info : Picture based subtitle format used on BDs/HD-DVDs
Duration : 2 h 5 min
Bit rate : 21.5 kb/s
Count of elements : 2391
Stream size : 19.3 MiB (0%)
Title : Greek-PGS
Language : Greek
Default : No
Forced : No

Text #14
ID : 16
Format : PGS
Muxing mode : zlib
Codec ID : S_HDMV/PGS
Codec ID/Info : Picture based subtitle format used on BDs/HD-DVDs
Duration : 2 h 5 min
Bit rate : 16.4 kb/s
Count of elements : 2432
Stream size : 14.8 MiB (0%)
Title : Hebrew-PGS
Language : Hebrew
Default : No
Forced : No

Text #15
ID : 17
Format : PGS
Muxing mode : zlib
Codec ID : S_HDMV/PGS
Codec ID/Info : Picture based subtitle format used on BDs/HD-DVDs
Duration : 2 h 5 min
Bit rate : 19.0 kb/s
Count of elements : 2404
Stream size : 17.1 MiB (0%)
Title : Hungarian-PGS
Language : Hungarian
Default : No
Forced : No

Text #16
ID : 18
Format : PGS
Muxing mode : zlib
Codec ID : S_HDMV/PGS
Codec ID/Info : Picture based subtitle format used on BDs/HD-DVDs
Duration : 2 h 5 min
Bit rate : 21.0 kb/s
Count of elements : 2344
Stream size : 18.9 MiB (0%)
Title : Icelandic-PGS
Language : Icelandic
Default : No
Forced : No

Text #17
ID : 19
Format : PGS
Muxing mode : zlib
Codec ID : S_HDMV/PGS
Codec ID/Info : Picture based subtitle format used on BDs/HD-DVDs
Duration : 2 h 5 min
Bit rate : 15.0 kb/s
Count of elements : 2452
Stream size : 13.5 MiB (0%)
Title : Korean-PGS
Language : Korean
Default : No
Forced : No

Text #18
ID : 20
Format : PGS
Muxing mode : zlib
Codec ID : S_HDMV/PGS
Codec ID/Info : Picture based subtitle format used on BDs/HD-DVDs
Duration : 2 h 5 min
Bit rate : 19.4 kb/s
Count of elements : 2210
Stream size : 17.4 MiB (0%)
Title : Latvian-PGS
Language : Latvian
Default : No
Forced : No

Text #19
ID : 21
Format : PGS
Muxing mode : zlib
Codec ID : S_HDMV/PGS
Codec ID/Info : Picture based subtitle format used on BDs/HD-DVDs
Duration : 2 h 5 min
Bit rate : 20.4 kb/s
Count of elements : 2363
Stream size : 18.3 MiB (0%)
Title : Lithuanian-PGS
Language : Lithuanian
Default : No
Forced : No

Text #20
ID : 22
Format : PGS
Muxing mode : zlib
Codec ID : S_HDMV/PGS
Codec ID/Info : Picture based subtitle format used on BDs/HD-DVDs
Duration : 2 h 11 min
Bit rate : 18.9 kb/s
Count of elements : 2444
Stream size : 17.8 MiB (0%)
Title : Norwegian-PGS
Language : Norwegian
Default : No
Forced : No

Text #21
ID : 23
Format : PGS
Muxing mode : zlib
Codec ID : S_HDMV/PGS
Codec ID/Info : Picture based subtitle format used on BDs/HD-DVDs
Duration : 2 h 5 min
Bit rate : 20.0 kb/s
Count of elements : 2424
Stream size : 18.0 MiB (0%)
Title : Polish-PGS
Language : Polish
Default : No
Forced : No

Text #22
ID : 24
Format : PGS
Muxing mode : zlib
Codec ID : S_HDMV/PGS
Codec ID/Info : Picture based subtitle format used on BDs/HD-DVDs
Duration : 2 h 11 min
Bit rate : 20.9 kb/s
Count of elements : 2439
Stream size : 19.7 MiB (0%)
Title : Portuguese-PGS
Language : Portuguese
Default : No
Forced : No

Text #23
ID : 25
Format : PGS
Muxing mode : zlib
Codec ID : S_HDMV/PGS
Codec ID/Info : Picture based subtitle format used on BDs/HD-DVDs
Duration : 2 h 5 min
Bit rate : 19.4 kb/s
Count of elements : 2364
Stream size : 17.4 MiB (0%)
Title : Romanian-PGS
Language : Romanian
Default : No
Forced : No

Text #24
ID : 26
Format : PGS
Muxing mode : zlib
Codec ID : S_HDMV/PGS
Codec ID/Info : Picture based subtitle format used on BDs/HD-DVDs
Duration : 2 h 5 min
Bit rate : 20.1 kb/s
Count of elements : 2428
Stream size : 18.0 MiB (0%)
Title : Russian-PGS
Language : Russian
Default : No
Forced : No

Text #25
ID : 27
Format : PGS
Muxing mode : zlib
Codec ID : S_HDMV/PGS
Codec ID/Info : Picture based subtitle format used on BDs/HD-DVDs
Duration : 2 h 5 min
Bit rate : 18.6 kb/s
Count of elements : 2424
Stream size : 16.7 MiB (0%)
Title : Slovenian-PGS
Language : Slovenian
Default : No
Forced : No

Text #26
ID : 28
Format : PGS
Muxing mode : zlib
Codec ID : S_HDMV/PGS
Codec ID/Info : Picture based subtitle format used on BDs/HD-DVDs
Duration : 2 h 11 min
Bit rate : 19.2 kb/s
Count of elements : 2442
Stream size : 18.1 MiB (0%)
Title : Sewdish-PGS
Language : Swedish
Default : No
Forced : No

Text #27
ID : 29
Format : PGS
Muxing mode : zlib
Codec ID : S_HDMV/PGS
Codec ID/Info : Picture based subtitle format used on BDs/HD-DVDs
Duration : 2 h 5 min
Bit rate : 21.1 kb/s
Count of elements : 2452
Stream size : 19.0 MiB (0%)
Title : Thai-PGS
Language : Thai
Default : No
Forced : No

Text #28
ID : 30
Format : PGS
Muxing mode : zlib
Codec ID : S_HDMV/PGS
Codec ID/Info : Picture based subtitle format used on BDs/HD-DVDs
Duration : 2 h 5 min
Bit rate : 20.4 kb/s
Count of elements : 2422
Stream size : 18.4 MiB (0%)
Title : Turkish-PGS
Language : Turkish
Default : No
Forced : No

Menu
00:00:00.000 : en:Chapter 01
00:06:48.741 : en:Chapter 02
00:14:44.049 : en:Chapter 03
00:24:02.858 : en:Chapter 04
00:32:42.168 : en:Chapter 05
00:43:36.739 : en:Chapter 06
00:51:51.858 : en:Chapter 07
00:58:05.899 : en:Chapter 08
01:04:33.911 : en:Chapter 09
01:08:30.564 : en:Chapter 10
01:18:00.634 : en:Chapter 11
01:27:03.885 : en:Chapter 12
01:38:20.436 : en:Chapter 13
01:45:13.807 : en:Chapter 14
01:50:08.143 : en:Chapter 15
01:58:40.029 : en:Chapter 16






Hellboy.2004.DC.REMASTERED.1080p.BluRay.x264.DTS-HD.MA.7.1-SWTYBLZ.torrent
还没有人收藏过本帖~
最新回复 (0)
返回